<?xml version="1.0" standalone="no"?>
<!DOCTYPE svg PUBLIC "-//W3C//DTD SVG 1.1//EN" "http://www.w3.org/Graphics/SVG/1.1/DTD/svg11.dtd" >
<svg xmlns="http://www.w3.org/2000/svg" xmlns:xlink="http://www.w3.org/1999/xlink" version="1.1">
<metadata>
Created by FontForge 20170731 at Tue Jun 13 11:49:16 2023
 By Aleksey,,,
</metadata>
<defs>
<font id="St_Ape_CustomRegular" horiz-adv-x="614" >
  <font-face 
    font-family="St_Ape_Custom"
    font-weight="500"
    font-stretch="normal"
    units-per-em="2048"
    panose-1="0 0 0 0 0 0 0 0 0 0"
    ascent="1638"
    descent="-410"
    x-height="862"
    cap-height="1446"
    bbox="-176.227 -598 1436 2044.27"
    underline-thickness="102"
    underline-position="-409"
    unicode-range="U+000D-FB04"
  />
<missing-glyph horiz-adv-x="935" 
d="M41 1382h854v-1382h-854v1382zM139 98h656v1186h-656v-1186z" />
    <glyph glyph-name=".notdef" horiz-adv-x="935" 
d="M41 1382h854v-1382h-854v1382zM139 98h656v1186h-656v-1186z" />
    <glyph glyph-name=".null" horiz-adv-x="0" 
 />
    <glyph glyph-name=".null" horiz-adv-x="0" 
 />
    <glyph glyph-name="nonmarkingreturn" unicode="&#xd;" horiz-adv-x="682" 
 />
    <glyph glyph-name="glyph3" horiz-adv-x="935" 
d="M41 1382h854v-1382h-854v1382zM139 98h656v1186h-656v-1186z" />
    <glyph glyph-name="glyph4" horiz-adv-x="935" 
d="M41 1382h854v-1382h-854v1382zM139 98h656v1186h-656v-1186z" />
    <glyph glyph-name="space" unicode=" " horiz-adv-x="307" 
 />
    <glyph glyph-name="exclam" unicode="!" horiz-adv-x="512" 
d="M362 1352q0 48 -28 83t-76 35q-49 0 -78.5 -35.5t-29.5 -82.5q0 -92 23.5 -247t47 -335.5t23.5 -333.5v-106q0 -19 12 -19q14 0 14 19v106q0 153 23 333.5t46 335.5t23 247zM340 82q0 41 -24 66.5t-62 25.5t-62 -25.5t-24 -66.5t24 -67.5t62 -26.5t62 26.5t24 67.5z" />
    <glyph glyph-name="quotedbl" unicode="&#x22;" horiz-adv-x="561" 
d="M496 1384q0 36 -26.5 61t-61.5 25t-62 -25t-27 -61t19 -84t38 -106.5t19 -120.5v-24q0 -17 13 -17q12 0 12 17v24q0 62 19 121t38 107t19 83zM242 1384q0 36 -26.5 61t-61.5 25t-61.5 -25t-26.5 -61t18.5 -84t37.5 -106.5t19 -120.5v-24q0 -17 13 -17q12 0 12 17v24
q0 62 19 121t38 107t19 83z" />
    <glyph glyph-name="numbersign" unicode="#" horiz-adv-x="819" 
d="M778 987q8 23 -14 23h-152l115 456q4 14 -10 17q-16 3 -19 -10l-116 -463h-205l115 456q4 14 -11 17q-15 2 -18 -10l-117 -463h-153q-18 0 -21 -13l-25 -96q-7 -22 15 -22h151l-73 -291h-154q-17 0 -20 -13l-25 -96q-7 -22 14 -22h152l-115 -459q-4 -16 8 -18
q15 -3 19 12l117 465h206l-114 -459q-4 -15 10 -18q14 -2 18 12l117 465h154q18 0 20 12l25 96q8 23 -15 23h-151l74 291h153q19 0 21 12zM549 879l-74 -291h-205l72 291h207z" />
    <glyph glyph-name="dollar" unicode="$" horiz-adv-x="591" 
d="M551 301q0 39 -7 76t-16.5 65.5t-28 60.5t-33 52t-41.5 49t-42.5 44t-47 44.5t-44.5 42.5v459q38 -3 64 -28t26 -66q0 -24 -21.5 -58t-21.5 -69q0 -45 22 -67.5t50 -22.5q38 0 57.5 29t19.5 77q0 77 -54.5 149.5t-141.5 75.5v166q0 21 -15 21q-12 0 -12 -21v-166
q-55 -5 -97.5 -38t-66 -82.5t-34.5 -100.5t-11 -102t12.5 -99t30 -83t49 -74.5t55 -63.5t62.5 -61v-516q-48 4 -83.5 28t-35.5 72q0 25 24 58t24 69q0 45 -24.5 69.5t-53.5 24.5q-41 0 -62.5 -30t-21.5 -78q0 -72 37.5 -126.5t89 -79.5t106.5 -26v-135q0 -20 15 -20
q12 0 12 20v135q124 7 192 97.5t68 228.5zM264 760q-63 65 -97 129t-34 147q0 64 35 108t96 50v-434zM471 164q0 -79 -52.5 -123t-127.5 -47v493q43 -41 69 -70t55 -70t42.5 -86.5t13.5 -96.5z" />
    <glyph glyph-name="percent" unicode="%" horiz-adv-x="1030" 
d="M989 422q0 118 -20 213t-64.5 156t-107.5 61q-65 0 -109 -61.5t-63 -157.5t-19 -219q0 -118 21 -213.5t66 -156t108 -60.5q65 0 108.5 62t61.5 157t18 219zM842 1292q7 14 -6 19q-15 6 -23 -11l-627 -1398q-7 -14 9 -21q13 -5 20 8zM424 782q0 118 -21 213.5t-66 156
t-108 60.5q-65 0 -108.5 -62t-61.5 -157t-18 -219q0 -118 20 -213t64.5 -156t107.5 -61q65 0 109 61.5t63 157.5t19 219zM860 244q0 -12 -1 -35t-1.5 -37t-1.5 -36t-3 -36t-5 -31.5t-7.5 -28.5t-10.5 -21t-14.5 -14.5t-18.5 -4.5q-20 0 -33 21t-18.5 60t-7.5 72t-3 78v9
q-6 175 0 350q0 9 1 27q1 33 2 51t3.5 48.5t6.5 47.5t11 36t17.5 27.5t24.5 8.5q19 0 31.5 -20.5t17.5 -54t7 -70t3 -74.5v-21q6 -176 0 -352zM295 606q0 -9 -1 -27q-1 -33 -2 -51t-3.5 -48.5t-6.5 -47.5t-11 -36t-17.5 -27.5t-24.5 -8.5q-19 0 -31.5 20.5t-17.5 54t-7 70
t-3 74.5v21q-6 176 0 352q0 12 1 35t1.5 37t1.5 36t3 36t5 31.5t7.5 28.5t10.5 21t14.5 14.5t18.5 4.5q20 0 33 -21t18.5 -60t7.5 -72t3 -78v-3v-3v-3q6 -175 0 -350z" />
    <glyph glyph-name="ampersand" unicode="&#x26;" horiz-adv-x="886" 
d="M438 1040q-2 -35 -5.5 -59.5t-12 -49t-25.5 -37.5t-41 -13q-76 0 -84 155q-6 122 0 244q2 36 5.5 60.5t11.5 51.5t24.5 40.5t40.5 13.5q78 0 86 -162q6 -122 0 -244zM516 213q-25 -98 -65 -154.5t-95 -56.5q-96 0 -108 244q-9 182 0 364q3 55 7.5 92.5t15 77t31.5 60
t52 20.5q102 0 127 -244q13 -118 21 -225q3 -37 8 -99t6 -79zM866 825q0 66 -37 104t-81 38q-132 0 -168 -228q-69 104 -166 129v2q86 21 134 103.5t48 191.5q0 124 -67.5 214.5t-176.5 90.5q-112 0 -176.5 -90t-64.5 -219q0 -104 50.5 -185t135.5 -104v-2
q-110 -27 -173 -152.5t-63 -291.5q0 -114 33.5 -216t98.5 -168.5t147 -66.5q126 0 184 185q3 -18 25 -68q57 -117 170 -117q56 0 85.5 34t29.5 95q0 21 -13 21q-14 0 -14 -21q2 -39 -13.5 -68.5t-45.5 -29.5q-47 0 -58 98q-4 42 -19.5 199t-19.5 199q-12 126 -55 207
q12 96 40.5 156.5t74.5 60.5q28 0 28 -29q0 -7 -15 -33.5t-15 -50.5q0 -39 23 -65.5t54 -26.5q34 0 57 30t23 74z" />
    <glyph glyph-name="quotesingle" unicode="'" horiz-adv-x="307" 
d="M242 1384q0 36 -26.5 61t-61.5 25t-61.5 -25t-26.5 -61t18.5 -84t37.5 -106.5t19 -120.5v-24q0 -17 13 -17q12 0 12 17v24q0 62 19 121t38 107t19 83z" />
    <glyph glyph-name="parenleft" unicode="(" horiz-adv-x="573" 
d="M553 -590q6 6 -8 17q-49 41 -86.5 81t-67 87.5t-50 93t-35.5 109t-23.5 123.5t-13 148t-6 170.5t-1.5 202.5t1.5 202.5t6 170.5t13 148t23.5 123.5t35.5 109.5t50 93.5t67 87.5t86.5 81q14 11 8 17q-10 12 -27 -2q-385 -323 -385 -1031q0 -707 385 -1030q17 -14 27 -2z
" />
    <glyph glyph-name="parenright" unicode=")" horiz-adv-x="573" 
d="M432 442q0 708 -385 1031q-17 14 -27 2q-6 -6 9 -17q49 -41 86.5 -81t67 -87.5t50 -93t35 -109.5t23 -123.5t13 -148t6 -170.5t1.5 -203t-1.5 -203t-6 -170t-13 -148t-23 -123.5t-35 -109t-50 -93t-67 -87.5t-86.5 -81q-15 -11 -9 -17q10 -12 27 2q385 323 385 1030z" />
    <glyph glyph-name="asterisk" unicode="*" horiz-adv-x="778" 
d="M707 1202q-8 28 -35.5 42.5t-59.5 4.5q-26 -9 -100 -66.5t-115 -76.5l-4 2q5 49 40.5 147t35.5 129q0 36 -23.5 61t-56.5 25q-32 0 -56 -25t-24 -61q0 -31 35.5 -129t40.5 -147l-4 -2q-39 18 -113 76t-102 67q-30 10 -58.5 -4.5t-37.5 -42.5q-8 -28 6.5 -56t44.5 -38
q17 -5 42 -5.5t64.5 1.5t61.5 2q63 0 90 -6l2 -6q-30 -36 -109.5 -97t-95.5 -86q-20 -31 -16 -60t28 -48q22 -20 56 -16t53 34q17 26 42.5 126.5t45.5 142.5h8q22 -43 47 -143.5t41 -125.5q19 -30 53 -34t56 16q24 19 27 48t-17 60q-16 25 -94.5 86t-108.5 97v6q27 6 86 6
q22 0 63.5 -2t67.5 -1.5t43 5.5q31 10 45 37.5t5 56.5z" />
    <glyph glyph-name="plus" unicode="+" horiz-adv-x="798" 
d="M420 604v309q0 29 -23 29q-20 0 -20 -29v-309h-309q-27 0 -27 -20q0 -19 27 -19h309v-311q0 -29 22 -29q21 0 21 29v311h313q25 0 25 21q0 18 -25 18h-313z" />
    <glyph glyph-name="comma" unicode="," horiz-adv-x="307" 
d="M258 -14q0 82 -35 132t-88 50q-36 0 -61 -24t-25 -60q0 -32 22 -55t52 -23q17 0 37 12.5t30 12.5q16 0 26.5 -20t10.5 -46q0 -61 -36 -106t-93 -45q-12 0 -26 2l-13 2q-10 0 -10 -13q0 -14 45 -14q76 0 120 57t44 138z" />
    <glyph glyph-name="hyphen" unicode="-" horiz-adv-x="307" 
d="M274 451v77q0 13 -20 13h-201q-20 0 -20 -13v-77q0 -13 20 -13h201q20 0 20 13z" />
    <glyph glyph-name="period" unicode="." horiz-adv-x="307" 
d="M240 82q0 41 -24 66.5t-62 25.5t-62 -25.5t-24 -66.5t24 -67.5t62 -26.5t62 26.5t24 67.5z" />
    <glyph glyph-name="slash" unicode="/" horiz-adv-x="307" 
d="M418 1493q4 14 -8 18q-15 5 -19 -10l-502 -1638q-3 -12 11 -17q15 -5 18 9z" />
    <glyph glyph-name="zero" unicode="0" horiz-adv-x="651" 
d="M600 600q0 170 -29 306t-92 222t-153 86q-94 0 -157.5 -87.5t-90.5 -224t-27 -312.5q0 -169 30 -306t94.5 -223t154.5 -86q71 0 124 49.5t84.5 137t46.5 197.5t15 241zM414 346q0 -16 -1 -49.5t-1.5 -53.5t-2 -51.5t-4 -51.5t-6.5 -45t-10.5 -41t-15 -30.5t-20.5 -21
t-27 -6.5q-28 0 -46 25.5t-26.5 87t-10.5 93.5t-4 112q-1 18 -1 26q-6 251 0 502q0 12 1 38q1 36 1.5 55t2 53t4.5 54t7 47.5t11 43t16 31.5t21.5 23t27.5 7q18 0 32 -12t22.5 -38.5t14 -49.5t8.5 -66.5t4 -66.5t2 -71q1 -27 1 -40q6 -252 0 -504z" />
    <glyph glyph-name="one" unicode="1" horiz-adv-x="460" 
d="M442 10q0 10 -18 10h-76q-11 0 -14.5 18t-3.5 64v1080q0 10 -17 10h-116q-19 0 -19 -12q0 -69 -22.5 -146t-55.5 -140t-59 -104.5t-45 -64.5q-14 -14 -2 -23q10 -10 22 7q53 71 98 158t62 167h2v-932q0 -46 -3.5 -64t-14.5 -18h-99q-18 0 -18 -10t18 -10h363q18 0 18 10z
" />
    <glyph glyph-name="two" unicode="2" horiz-adv-x="555" 
d="M526 12v252q0 12 -10 12t-10 -12v-57q0 -43 -14 -58.5t-52 -15.5h-301v2q91 116 148 198t104.5 172.5t68.5 176.5t21 180q0 80 -19.5 144t-49 101.5t-67 63t-69.5 34.5t-61 9q-94 0 -150.5 -70.5t-56.5 -148.5q0 -55 26.5 -84.5t63.5 -29.5q35 0 60.5 30.5t25.5 73.5
q0 31 -26.5 75t-26.5 73q0 23 18 42t54 19q24 0 39 -9.5t30 -41.5t22 -103.5t7 -185.5q0 -92 -1 -143t-5 -118t-11.5 -105t-22 -90t-35 -88.5t-52 -84.5t-71 -93.5t-93.5 -102.5q-6 -6 -6 -17q0 -12 10 -12h502q10 0 10 12z" />
    <glyph glyph-name="three" unicode="3" horiz-adv-x="526" 
d="M485 422q0 81 -15.5 146.5t-39.5 106.5t-56 70t-61 42t-59 18v2q205 78 205 344q0 152 -71.5 235.5t-176.5 83.5q-81 0 -138 -64t-57 -159q0 -49 22.5 -76.5t57.5 -27.5q27 0 50.5 20.5t23.5 67.5q0 33 -26.5 68t-26.5 59q0 37 17.5 64.5t58.5 27.5q58 0 78 -68t20 -239
q0 -170 -15.5 -250t-54.5 -80h-63q-15 0 -15 -12q0 -15 15 -15h65q26 0 41.5 -13.5t27.5 -71t13 -166.5q0 -167 -2 -267q0 -4 -0.5 -25.5t-1 -35t-2 -38t-4.5 -41.5t-7.5 -39t-12 -37t-17 -28.5t-23.5 -20.5t-30 -7q-42 0 -66 32.5t-24 63.5q0 25 26.5 59.5t26.5 69.5
q0 45 -23 68.5t-51 23.5q-40 0 -61 -30t-21 -78q0 -50 20 -100.5t68.5 -90t114.5 -39.5q85 0 147.5 62t92.5 162t30 223z" />
    <glyph glyph-name="four" unicode="4" horiz-adv-x="569" 
d="M578 113q-10 12 -23 -4q-45 -49 -84 -58q-7 -1 -10.5 2.5t-3.5 14.5v567q0 16 -13 16q-10 0 -18 -12q-56 -73 -104 -102q-17 -11 -17 -27v-412q0 -11 -2.5 -13.5t-11.5 1.5q-4 2 -17 7.5t-18.5 8t-17 7t-19 7t-17.5 5t-19.5 3.5t-18.5 1q-79 0 -131 -59l-2 2
q16 32 57 112t57 111t51 102.5t49.5 107t42 102t40.5 110t32 108.5t28.5 120.5t18.5 122.5t13 136q0 10 -4 15t-10 2q-47 -19 -76 -23q-44 -9 -88 -6q-11 0 -11 -12q5 -106 5.5 -195t-5.5 -170.5t-15.5 -149.5t-27.5 -137.5t-37.5 -129t-50.5 -130t-62 -133.5t-75 -147
q-11 -22 2 -29q13 -6 21 10q68 137 174 137q10 0 22 -2t20.5 -4t23 -7t20 -7.5t22.5 -10t21 -8.5q16 -8 16 -26v-281q0 -16 19 -14q32 4 57 4q23 0 59 -4q17 -2 17 14v254q0 11 3 15.5t13 5.5q45 10 94 55q20 18 11 27z" />
    <glyph glyph-name="five" unicode="5" horiz-adv-x="532" 
d="M485 432q0 179 -76 291.5t-184 112.5q-15 0 -27.5 -1t-20.5 -2.5t-17.5 -5t-13.5 -5t-14 -6.5t-13 -7v485q16 -36 56.5 -67t92.5 -31q77 0 130 50.5t53 131.5q0 36 -20 64t-58 28q-33 0 -52.5 -23.5t-19.5 -55.5t25.5 -62t25.5 -53q0 -28 -25 -45t-57 -17q-54 0 -94 35
t-59 94q18 11 31.5 32.5t13.5 45.5q0 18 -9 33.5t-26 15.5q-22 0 -32.5 -16.5t-10.5 -40.5q0 -23 4 -51q6 -34 6 -45v-498q0 -21 -12 -28q-27 -19 -27 -37q0 -21 14.5 -34t28.5 -13q11 0 20 12t9 29q0 18 -6 36q36 31 74 31q61 0 84.5 -58.5t25.5 -197.5q0 -180 -2 -280
q-1 -155 -24 -219t-74 -64q-44 0 -67 32t-23 64q0 25 26.5 59.5t26.5 69.5q0 45 -23 68.5t-51 23.5q-40 0 -61 -30t-21 -78q0 -37 12 -75.5t35.5 -74t64.5 -58t93 -22.5q111 0 189.5 120t78.5 337z" />
    <glyph glyph-name="six" unicode="6" horiz-adv-x="622" 
d="M586 430q0 203 -71.5 317.5t-168.5 114.5q-93 0 -117 -110h-2q0 61 9 311q2 57 4.5 98.5t8 89.5t15 81t24 61.5t36 42.5t49.5 14q38 0 61 -25.5t23 -70.5q0 -25 -22.5 -59.5t-22.5 -69.5q0 -45 23.5 -68.5t51.5 -23.5q40 0 61 30t21 78q0 49 -21 100t-68 90t-107 39
q-65 0 -117 -39.5t-86 -109.5t-58.5 -154.5t-37 -187.5t-18 -194.5t-5.5 -188.5q0 -621 266 -621q48 0 94.5 27.5t86 81t64 143.5t24.5 203zM403 240q-7 -144 -23 -189q-19 -55 -61 -55q-17 0 -30 9t-21.5 28.5t-14 38t-9 51.5t-5 54t-3.5 59q-9 173 -9 358
q0 103 25.5 173.5t66.5 70.5q39 0 58.5 -51t25.5 -189q9 -179 0 -358z" />
    <glyph glyph-name="seven" unicode="7" horiz-adv-x="495" 
d="M543 1192q0 15 -13 12q-117 -26 -245 -26q-135 0 -258 26q-8 2 -13.5 -3.5t-5.5 -14.5v-328q0 -14 10 -14q13 0 13 16v170q83 -33 168 -33q140 0 276 101l2 -4q-128 -288 -214.5 -535t-129.5 -414.5t-92 -404.5q-2 -11 4 -17t16 -2q29 13 76 19q49 7 80 4q11 0 15 2t4 12
q6 135 10 201.5t14 183t22 189t33.5 182t50.5 202.5t71.5 209.5t97.5 241.5q8 24 8 25z" />
    <glyph glyph-name="eight" unicode="8" 
d="M592 375q0 145 -64 253t-172 134v2q92 24 143.5 119.5t51.5 228.5q0 151 -66.5 254.5t-177.5 103.5q-114 0 -177.5 -103t-63.5 -259q0 -131 48 -226t136 -120v-2q-111 -24 -168 -129t-57 -260q0 -167 77.5 -281.5t206.5 -114.5q133 0 208 114t75 286zM385 963
q-1 -33 -2 -49.5t-4 -44t-8 -41.5t-13 -30t-20.5 -23t-28.5 -7q-23 0 -38 15.5t-23 45.5t-11.5 59t-5.5 70q-6 146 0 291q1 33 2 49.5t4 45t8 43.5t13 32t20.5 24t28.5 7q42 0 58 -53.5t20 -143.5q6 -145 0 -290zM406 213q-2 -35 -3.5 -54.5t-5.5 -49.5t-10.5 -46.5
t-16.5 -34t-25.5 -25t-35.5 -7.5q-28 0 -47 17t-29 50.5t-14.5 66t-7.5 79.5q-9 161 0 323q2 37 3.5 55.5t5.5 49t10 47t16 34.5t25.5 26t35.5 8q28 0 47.5 -17.5t29.5 -51.5t14.5 -67t7.5 -79q10 -162 0 -324z" />
    <glyph glyph-name="nine" unicode="9" horiz-adv-x="622" 
d="M571 594q0 620 -266 620q-48 0 -94 -27.5t-85.5 -80.5t-64 -143t-24.5 -203q0 -203 71 -317.5t168 -114.5q93 0 117 110h2q0 -89 -8 -311q-2 -57 -4.5 -98.5t-8 -89.5t-15 -81t-24 -61.5t-36 -42.5t-49.5 -14q-38 0 -61 25.5t-23 70.5q0 25 22.5 59.5t22.5 69.5
q0 45 -24 68.5t-52 23.5q-40 0 -61 -30t-21 -78q0 -49 21.5 -100.5t68.5 -90.5t107 -39q77 0 136 58t93 146.5t55.5 210.5t29 232t7.5 228zM395 596q0 -103 -25.5 -173.5t-66.5 -70.5q-39 0 -58.5 51t-25.5 189q-9 179 0 358q7 144 23 189q19 55 61 55q17 0 30 -9t21.5 -28
t14.5 -38.5t9.5 -51.5t5 -54t3.5 -59q8 -153 8 -358z" />
    <glyph glyph-name="colon" unicode=":" horiz-adv-x="307" 
d="M240 702q0 41 -24 67t-62 26t-62 -26t-24 -67t24 -67.5t62 -26.5t62 26.5t24 67.5zM240 82q0 41 -24 66.5t-62 25.5t-62 -25.5t-24 -66.5t24 -67.5t62 -26.5t62 26.5t24 67.5z" />
    <glyph glyph-name="semicolon" unicode=";" horiz-adv-x="307" 
d="M242 702q0 41 -24 67t-62 26t-62 -26t-24 -67t24 -67.5t62 -26.5t62 26.5t24 67.5zM258 -14q0 82 -35 132t-88 50q-36 0 -61 -24t-25 -60q0 -32 22 -55t52 -23q17 0 37 12.5t30 12.5q16 0 26.5 -20t10.5 -46q0 -61 -36 -106t-93 -45q-12 0 -26 2l-13 2q-10 0 -10 -13
q0 -14 45 -14q76 0 120 57t44 138z" />
    <glyph glyph-name="less" unicode="&#x3c;" horiz-adv-x="798" 
d="M748 274q9 17 -19 31l-627 281l627 278q28 14 19 31q-10 20 -33 8l-645 -291q-19 -10 -19 -28t19 -27l645 -291q23 -12 33 8z" />
    <glyph glyph-name="equal" unicode="=" horiz-adv-x="798" 
d="M737 770q0 18 -24 18h-625q-27 0 -27 -20q0 -18 27 -18h625q24 0 24 20zM737 401q0 19 -24 19h-625q-27 0 -27 -21q0 -18 27 -18h625q24 0 24 20z" />
    <glyph glyph-name="greater" unicode="&#x3e;" horiz-adv-x="798" 
d="M748 586q0 16 -19 26l-645 291q-23 12 -33 -8q-9 -17 19 -31l626 -280l-626 -279q-28 -14 -19 -31q10 -20 33 -8l645 291q19 9 19 29z" />
    <glyph glyph-name="question" unicode="?" 
d="M578 1051q0 89 -18 162t-45.5 119.5t-63 78.5t-69.5 45.5t-65 13.5q-51 0 -91.5 -20.5t-62.5 -52t-33 -64.5t-11 -63q0 -37 20 -64.5t60 -27.5q35 0 54 22t19 55q0 29 -26.5 61.5t-26.5 53.5q0 32 19.5 56t50.5 24q45 0 74 -57.5t38 -159.5q19 -199 0 -399
q-10 -98 -33 -149.5t-67 -51.5q-40 0 -63 20q6 24 6 35q0 41 -25 41q-18 0 -28.5 -13.5t-10.5 -31.5q0 -10 7.5 -23t13.5 -16q14 -8 14 -29v-286q0 -19 14 -19q13 0 13 19v293q27 -9 65 -9q67 0 121 41.5t85.5 107t48 140t16.5 148.5zM313 82q0 41 -24 66.5t-62 25.5
t-62 -25.5t-24 -66.5t24 -67.5t62 -26.5t62 26.5t24 67.5z" />
    <glyph glyph-name="at" unicode="@" horiz-adv-x="980" 
d="M920 461q0 321 -117 494t-314 173q-71 0 -131.5 -22.5t-104 -61.5t-74.5 -84t-52 -98q-9 -20 6 -26q7 -2 12 2t7 8.5t6 15.5q36 112 125 180t206 68q56 0 105 -16.5t99 -61t85 -115t57.5 -187.5t22.5 -269q0 -343 -86 -488t-283 -145q-92 0 -158 25.5t-114 83.5
t-71 157.5t-23 243.5q0 288 77 409t238 121q90 0 90 -73v-93q0 -8 -0.5 -13.5t-2 -11t-2 -9t-4 -8.5t-5 -7t-7 -7t-7.5 -7t-10 -8.5t-11 -9.5q-24 -21 -68.5 -51.5t-62.5 -45.5q-96 -80 -96 -241q0 -87 46 -154.5t120 -67.5q102 0 119 93h2q0 -37 27.5 -65t76.5 -28
q52 0 82 28t33 81q0 17 -5 19q-2 1 -5 1q-11 0 -11 -20q0 -31 -14.5 -52.5t-34.5 -21.5q-11 0 -16 9t-5.5 16t-0.5 22v482q0 128 -68 195t-160 67q-184 0 -280.5 -140.5t-96.5 -396.5q0 -276 106 -408t320 -132q215 0 324 166t109 485zM528 225q0 -70 -21 -104.5t-52 -34.5
q-48 0 -52 78q-4 126 0 244q3 86 32 138t93 95v-416z" />
    <glyph glyph-name="A" unicode="A" horiz-adv-x="716" 
d="M713 10q0 10 -15 10h-12q-19 0 -26.5 14.5t-16.5 67.5l-233 1332q-4 12 -13 12h-96q-14 0 -14 -12l-146 -1022q-15 -106 -28.5 -179.5t-24 -115t-22.5 -63.5t-21 -28t-22 -6h-5q-14 0 -14 -10t14 -10h240q14 0 14 10t-14 10h-31q-61 0 -76 79t13 288l22 162q3 12 11 12
h192q3 0 5 -0.5t3 -2t1.5 -2.5t1.5 -4l1 -3l72 -447q9 -54 6 -68t-22 -14h-39q-15 0 -15 -10t15 -10h280q15 0 15 10zM393 600q2 -5 -1.5 -10.5t-10.5 -5.5h-176q-12 0 -12 12l88 664h6z" />
    <glyph glyph-name="B" unicode="B" horiz-adv-x="743" 
d="M690 385q0 95 -25.5 170t-65 117t-82 63t-81.5 21v2q96 13 157.5 113t61.5 229q0 171 -75 258.5t-185 87.5h-336q-14 0 -14 -10q0 -11 14 -11h52q18 0 18 -73v-1258q0 -74 -18 -74h-52q-14 0 -14 -10t14 -10h340q121 0 206 107.5t85 277.5zM489 1092q0 -59 -1 -97
t-5.5 -79t-12.5 -65.5t-21 -45.5t-33.5 -30t-48.5 -9h-56q-16 0 -16 12v633q0 12 18 12h60q37 0 61 -26t35.5 -76t15.5 -102.5t4 -126.5zM496 385q0 -68 -1 -110t-5.5 -88t-12.5 -72.5t-22 -49.5t-35.5 -32.5t-50.5 -9.5h-58q-16 0 -16 12v698q0 12 18 12h56q70 0 98.5 -86
t28.5 -274z" />
    <glyph glyph-name="C" unicode="C" horiz-adv-x="696" 
d="M635 14v475q0 17 -12 17q-13 0 -13 -17v-28q0 -214 -50.5 -339.5t-135.5 -125.5q-30 0 -53 11t-39 27t-28 48.5t-18.5 61.5t-11.5 80t-7 90.5t-5 105.5q-10 257 0 600q2 54 3.5 88t4.5 80t7.5 74.5t11 62t16.5 53.5t23 38t30 26t39 8q30 0 60.5 -32t54.5 -88t39.5 -139
t15.5 -177v-17q0 -16 13 -16q12 0 12 16v435q0 20 -12 20q-13 0 -13 -20v-13q0 -25 -30 -2q-72 53 -134 53q-90 0 -157.5 -58t-108 -162.5t-60.5 -240.5t-20 -302q0 -100 10.5 -197t36 -195.5t64.5 -172.5t102 -120.5t142 -46.5q22 0 42.5 3.5t41.5 12t32 13.5t31 15.5
t21 11.5q1 0 6 3.5t8 4.5t7.5 1.5t6.5 -3t2 -10.5v-13q0 -20 13 -20q12 0 12 20z" />
    <glyph glyph-name="D" unicode="D" horiz-adv-x="806" 
d="M750 739q0 137 -19.5 258.5t-60 224.5t-112 163.5t-165.5 60.5h-334q-14 0 -14 -10q0 -11 14 -11h52q18 0 18 -73v-1258q0 -74 -18 -74h-52q-14 0 -14 -10t14 -10h334q93 0 162.5 56t111.5 157.5t62.5 233t20.5 292.5zM545 436q-2 -57 -4 -96t-6.5 -86t-10.5 -78
t-16.5 -62.5t-24 -49.5t-33 -29.5t-44.5 -11.5h-97q-14 0 -14 8v1382q0 10 16 10h86q29 0 51.5 -11.5t38 -37.5t25.5 -57.5t16.5 -81.5t10 -98.5t6.5 -118.5q10 -249 0 -582z" />
    <glyph glyph-name="E" unicode="E" horiz-adv-x="696" 
d="M635 14v432q0 15 -12 15q-11 0 -11 -15v-34q0 -33 -3.5 -71t-20 -98t-43 -106t-79.5 -80t-124 -34h-33q-14 0 -14 8v702q0 10 16 10h6q48 0 76.5 -69t28.5 -148v-28q0 -15 12 -15q10 0 10 15v510q0 14 -10 14q-4 0 -6 -0.5t-4 -3.5t-2 -10v-29q0 -49 -11 -96.5t-36 -83
t-58 -35.5h-8q-14 0 -14 8v641q0 10 16 10h35q61 0 104.5 -38.5t64 -101t28.5 -119.5t8 -115v-37q0 -15 12 -15t12 15v420q0 14 -12 14h-504q-14 0 -14 -10q0 -11 14 -11h52q18 0 18 -73v-1258q0 -74 -18 -74h-52q-14 0 -14 -10t14 -10h564q12 0 12 14z" />
    <glyph glyph-name="F" unicode="F" horiz-adv-x="636" 
d="M575 971v461q0 14 -12 14h-504q-14 0 -14 -10q0 -11 14 -11h52q18 0 18 -73v-1258q0 -74 -18 -74h-52q-14 0 -14 -10t14 -10h326q14 0 14 10t-14 10h-72q-18 0 -18 74v604q0 11 16 11h6q48 0 76.5 -69t28.5 -148v-35q0 -15 12 -15q10 0 10 15v504q0 14 -10 14
q-4 0 -6 -0.5t-4 -3.5t-2 -10v-17q0 -49 -11 -96.5t-36 -83t-58 -35.5h-8q-14 0 -14 8v676q0 10 16 10h35q50 0 88 -29t59.5 -71.5t35 -99t18 -103.5t4.5 -92v-57q0 -15 12 -15t12 15z" />
    <glyph glyph-name="G" unicode="G" horiz-adv-x="780" 
d="M760 516q0 8 -17 8h-344q-14 0 -14 -10q0 -8 16 -8h91q18 0 18 -74v-248v-17q0 -37 -0.5 -54.5t-5.5 -44.5t-15.5 -39.5t-30.5 -22.5t-50 -10q-24 0 -43 7t-33 24.5t-24 34.5t-17.5 52t-12 59.5t-8 74t-5 80t-3.5 92.5q-10 257 0 600q2 54 3.5 88t4.5 80t7.5 74.5t11 62
t16.5 53.5t23 38t30 26t39 8q21 0 44 -13t49 -45t46.5 -80t34 -126t13.5 -174v-15q0 -16 12 -16t12 16v435q0 20 -12 20t-12 -20v-13q0 -7 -2.5 -10t-6.5 -2.5t-7.5 2t-8.5 4.5t-6 4q-76 53 -150 53q-91 0 -159 -57.5t-108 -162.5t-59.5 -240.5t-19.5 -302.5
q0 -101 8.5 -195.5t32 -194.5t60 -174t97 -121t138.5 -47q49 0 113 34t98 34q47 0 47 -20v-7q0 -20 15 -20q10 0 10 20v416q0 74 18 74h51q15 0 15 10z" />
    <glyph glyph-name="H" unicode="H" horiz-adv-x="839" 
d="M795 10q0 10 -15 10h-51q-18 0 -18 74v1258q0 73 18 73h51q15 0 15 11q0 10 -15 10h-305q-14 0 -14 -10q0 -11 14 -11h51q19 0 19 -71v-582q0 -14 -17 -14h-217q-16 0 -16 14v580q0 73 18 73h52q14 0 14 11q0 10 -14 10h-306q-14 0 -14 -10q0 -11 14 -11h52q18 0 18 -73
v-1258q0 -74 -18 -74h-52q-14 0 -14 -10t14 -10h306q14 0 14 10t-14 10h-52q-18 0 -18 74v627q0 14 16 14h217q17 0 17 -14v-627q0 -74 -19 -74h-51q-14 0 -14 -10t14 -10h305q15 0 15 10z" />
    <glyph glyph-name="I" unicode="I" horiz-adv-x="423" 
d="M379 10q0 10 -14 10h-52q-18 0 -18 74v1258q0 73 18 73h52q14 0 14 11q0 10 -14 10h-306q-14 0 -14 -10q0 -11 14 -11h52q18 0 18 -73v-1258q0 -74 -18 -74h-52q-14 0 -14 -10t14 -10h306q14 0 14 10z" />
    <glyph glyph-name="J" unicode="J" horiz-adv-x="610" 
d="M565 1436q0 10 -14 10h-326q-14 0 -14 -10q0 -11 14 -11h72q18 0 18 -71v-1288q0 -72 -77 -72q-26 0 -42 12t-16 31q0 14 18.5 45t18.5 65q0 43 -27.5 71t-68.5 28q-49 0 -75 -31t-26 -72q0 -66 61.5 -117t154.5 -51q110 0 177.5 106.5t67.5 276.5v994q0 73 19 73h51
q14 0 14 11z" />
    <glyph glyph-name="K" unicode="K" horiz-adv-x="776" 
d="M768 109q-14 0 -14 -21q-5 -84 -52 -84q-17 0 -27 9t-14 26.5t-5 29.5t-1 33v258q0 380 -276 410v2q36 13 54.5 37t31.5 68q53 165 94 303q43 145 72.5 194t73.5 49h26q14 0 14 11q0 10 -14 10h-239q-15 0 -15 -10q0 -11 15 -11h30q20 0 32.5 -5t18.5 -17t7 -26
t-3.5 -38.5t-11 -48t-18.5 -59.5q-9 -31 -52.5 -178.5t-52.5 -178.5q-31 -94 -118 -94h-14h3q-18 0 -18 13v559q0 73 18 73h52q14 0 14 11q0 10 -14 10h-306q-14 0 -14 -10q0 -11 14 -11h52q18 0 18 -73v-1258q0 -74 -18 -74h-52q-14 0 -14 -10t14 -10h306q14 0 14 10
t-14 10h-52q-18 0 -18 74v651q0 5 5 10t15 5h15q52 0 77 -14q87 -49 87 -250q0 -51 -2.5 -153t-2.5 -153q0 -88 50 -151.5t133 -63.5q56 0 80.5 29.5t27.5 85.5q0 21 -12 21z" />
    <glyph glyph-name="L" unicode="L" horiz-adv-x="696" 
d="M635 14v432q0 15 -12 15q-11 0 -11 -15v-34q0 -33 -3.5 -71t-20 -98t-43 -106t-79.5 -80t-124 -34h-33q-14 0 -14 8v1323q0 71 18 71h72q14 0 14 11q0 10 -14 10h-326q-14 0 -14 -10q0 -11 14 -11h52q18 0 18 -73v-1258q0 -74 -18 -74h-52q-14 0 -14 -10t14 -10h564
q12 0 12 14z" />
    <glyph glyph-name="M" unicode="M" horiz-adv-x="989" 
d="M944 10q0 10 -14 10h-51q-19 0 -19 74v1258q0 73 19 73h51q14 0 14 11q0 10 -14 10h-230q-19 0 -22 -16l-178 -1129h-2l-189 1129q-3 16 -24 16h-226q-14 0 -14 -10q0 -11 14 -11h52q18 0 18 -71v-871q0 -134 -3.5 -223.5t-7.5 -137t-14 -71t-18 -27.5t-23 -4h-4
q-14 0 -14 -10t14 -10h217q15 0 15 10t-15 10h-30q-36 0 -55.5 41t-28 143t-8.5 294v872h2l256 -1376q3 -19 20 -19h21q17 0 20 21l219 1374h2v-1276q0 -74 -18 -74h-51q-15 0 -15 -10t15 -10h305q14 0 14 10z" />
    <glyph glyph-name="N" unicode="N" horiz-adv-x="776" 
d="M731 1436q0 10 -14 10h-238q-14 0 -14 -10q0 -11 14 -11h41q38 0 59.5 -40t32.5 -144.5t11 -292.5v-577h-5l-319 1063q-4 12 -20 12h-220q-14 0 -14 -10q0 -11 14 -11h52q18 0 18 -71v-871q0 -135 -3 -223.5t-7.5 -137t-14 -71.5t-17.5 -27t-24 -4h-4q-14 0 -14 -10
t14 -10h238q14 0 14 10t-14 10h-41q-38 0 -59 40.5t-32 145t-11 292.5v835h2l413 -1341q7 -17 23 -17h35q20 0 20 21v967q0 135 3 223.5t7.5 136.5t14.5 71t17.5 27t23.5 4h4q14 0 14 11z" />
    <glyph glyph-name="O" unicode="O" horiz-adv-x="788" 
d="M731 729q0 148 -19.5 278t-58.5 235.5t-105 166.5t-151 61q-88 0 -155.5 -61.5t-106.5 -168.5t-58.5 -238.5t-19.5 -284.5q0 -148 19.5 -278t58.5 -235.5t105 -167t151 -61.5q88 0 155.5 61.5t106.5 169t58.5 239t19.5 284.5zM526 426q0 -13 -1 -52t-1.5 -61t-2.5 -61.5
t-6.5 -64.5t-10.5 -58t-16 -54t-23.5 -40.5t-32 -29t-41.5 -9.5q-118 0 -128 395q-1 17 -1 25q-9 302 0 604q0 13 1 52t1.5 61t2.5 61.5t6.5 64.5t10.5 58t16 54t23.5 40.5t32 29t41.5 9.5q118 0 128 -392q1 -16 1 -24q9 -304 0 -608z" />
    <glyph glyph-name="P" unicode="P" horiz-adv-x="739" 
d="M694 1044q0 193 -85.5 297.5t-215.5 104.5h-334q-14 0 -14 -10q0 -11 14 -11h52q18 0 18 -73v-1258q0 -74 -18 -74h-52q-14 0 -14 -10t14 -10h340q15 0 15 10t-15 10h-86q-18 0 -18 74v535q0 12 18 12h90q125 0 208 110.5t83 292.5zM502 1044q0 -71 -1 -115.5t-5.5 -93
t-12.5 -76.5t-22 -52.5t-35.5 -34.5t-50.5 -10h-64q-16 0 -16 12v737q0 12 18 12h62q70 0 98.5 -90.5t28.5 -288.5z" />
    <glyph glyph-name="Q" unicode="Q" horiz-adv-x="788" 
d="M731 729q0 148 -19.5 278t-58.5 235.5t-105 166.5t-151 61q-88 0 -155.5 -61.5t-106.5 -168.5t-58.5 -238.5t-19.5 -284.5q0 -134 16.5 -254t48.5 -219.5t85 -167.5t121 -90v-2q-62 -20 -66 -107q0 -20 12 -20q11 0 11 20q2 33 16 59.5t43 26.5t37 -38.5t8 -160.5
q0 -54 10.5 -101.5t32.5 -90t63.5 -67.5t98.5 -25q77 0 120.5 43.5t43.5 99.5q0 44 -23.5 68t-52.5 24q-39 0 -60.5 -27t-21.5 -55q0 -32 21.5 -57t21.5 -43q0 -35 -53 -35q-17 0 -28.5 6t-18.5 19.5t-11 27.5t-5 39t-1 44t1 53t1 55q0 91 -31.5 149t-76.5 84v2
q81 10 142.5 75t97.5 170t53.5 232.5t17.5 274.5zM526 426q0 -13 -1 -52t-1.5 -61t-2.5 -61.5t-6.5 -64.5t-10.5 -58t-16 -54t-23.5 -40.5t-32 -29t-41.5 -9.5q-118 0 -128 395q-1 17 -1 25q-9 302 0 604q0 13 1 52t1.5 61t2.5 61.5t6.5 64.5t10.5 58t16 54t23.5 40.5t32 29
t41.5 9.5q118 0 128 -392q1 -16 1 -24q9 -304 0 -608z" />
    <glyph glyph-name="R" unicode="R" horiz-adv-x="804" 
d="M797 111q-15 0 -15 -21q-5 -84 -51 -84q-17 0 -27 9t-14 26.5t-5 29.5t-1 33v248q0 180 -70.5 283t-189.5 123v2q74 8 129 67t78.5 131t23.5 142q0 169 -75 257.5t-185 88.5h-336q-14 0 -14 -10q0 -11 14 -11h52q18 0 18 -73v-1258q0 -74 -18 -74h-52q-14 0 -14 -10
t14 -10h306q14 0 14 10t-14 10h-52q-18 0 -18 74v641q0 5 5 10t15 5h35h5q22 0 37 -1.5t42 -15.5t44 -39.5t30.5 -79t13.5 -129.5q0 -51 -2 -147.5t-2 -147.5q0 -88 49.5 -151.5t132.5 -63.5q102 0 109 115q0 21 -12 21zM489 1092q0 -59 -1 -97t-5.5 -79t-12.5 -65.5
t-21 -45.5t-33.5 -30t-48.5 -9h-56q-16 0 -16 12v633q0 12 18 12h60q37 0 61 -26t35.5 -76t15.5 -102.5t4 -126.5z" />
    <glyph glyph-name="S" unicode="S" horiz-adv-x="610" 
d="M569 367q0 90 -23 167t-59.5 134t-80.5 109.5t-88.5 103t-81 103t-59.5 122.5t-23 149q0 92 34.5 141.5t92.5 49.5q47 0 82 -37t52.5 -87t28 -117t13 -110t2.5 -83v-15q0 -16 12 -16t12 16v435q0 20 -12 20t-12 -20v-13q0 -29 -39 2q-66 49 -121 49q-63 0 -111 -40.5
t-73 -103t-37 -125t-12 -120.5q0 -86 23 -161.5t59.5 -132t80.5 -109t88.5 -103t81 -103.5t59.5 -122t23 -147q0 -94 -53.5 -148.5t-126.5 -54.5q-35 0 -64 13.5t-49.5 33.5t-37 54t-26.5 62t-17 72t-10 70.5t-5 70t-2 57.5v46v10q0 17 -12 17t-12 -17v-473q0 -20 12 -20
t12 20v11q0 17 29 2q92 -54 170 -54q120 0 200 110t80 282z" />
    <glyph glyph-name="T" unicode="T" horiz-adv-x="772" 
d="M731 971v461q0 14 -14 14h-662q-14 0 -14 -14v-461q0 -15 12 -15q13 0 13 15v57q0 38 2.5 75t9.5 85t21 87.5t34.5 74t53.5 54t75 19.5h23q18 0 18 -10v-1319q0 -74 -18 -74h-52q-14 0 -14 -10t14 -10h306q14 0 14 10t-14 10h-52q-18 0 -18 74v1319q0 10 18 10h23
q42 0 75 -19.5t53.5 -54t35 -74t21.5 -87t9.5 -85t2.5 -75.5v-57q0 -15 12 -15t12 15z" />
    <glyph glyph-name="U" unicode="U" horiz-adv-x="751" 
d="M707 1436q0 10 -15 10h-219q-14 0 -14 -10q0 -11 14 -11h33q28 0 45 -20.5t28 -76.5t15 -145t4 -235v-659q0 -142 -48.5 -213.5t-127.5 -71.5q-127 0 -127 223v1125q0 73 18 73h52q14 0 14 11q0 10 -14 10h-306q-14 0 -14 -10q0 -11 14 -11h52q18 0 18 -73v-1053
q0 -130 74.5 -227t193.5 -97q117 0 171.5 88.5t54.5 223.5v676q0 135 3 223.5t7 136.5t14 71t17.5 27t23.5 4h4q15 0 15 11z" />
    <glyph glyph-name="V" unicode="V" horiz-adv-x="708" 
d="M705 1436q0 10 -15 10h-239q-15 0 -15 -10q0 -11 15 -11h30q61 0 76 -78.5t-12 -287.5l-113 -873h-6l-182 1157q-9 54 -6 68t22 14h39q14 0 14 11q0 10 -14 10h-281q-14 0 -14 -10q0 -11 14 -11h13q19 0 26.5 -14.5t16.5 -67.5l229 -1331q4 -12 12 -12h97q14 0 14 12
l141 1022q14 106 27.5 179.5t24 114.5t23 63.5t22 28t22.5 5.5h4q15 0 15 11z" />
    <glyph glyph-name="W" unicode="W" horiz-adv-x="1175" 
d="M1171 1436q0 10 -14 10h-239q-15 0 -15 -10q0 -11 15 -11h30q61 0 76 -78.5t-12 -287.5l-113 -873h-6l-182 1157q-9 54 -6 68t22 14h39q14 0 14 11q0 2 -1 2l-5 3l-8 5h-315q-15 0 -15 -10q0 -11 15 -11h30q61 0 76 -78.5t-12 -287.5l-113 -873h-6l-182 1157q-9 54 -6 68
t22 14h39q14 0 14 11q0 10 -14 10h-281q-14 0 -14 -10q0 -11 14 -11h13q19 0 26.5 -14.5t16.5 -67.5l229 -1331q4 -12 12 -12h97q14 0 14 12l154 1100h2l188 -1100q4 -12 12 -12h97q14 0 14 12l141 1022q14 105 27.5 179t24.5 115t23.5 63.5t21.5 28t22 5.5h4q14 0 14 11z
" />
    <glyph glyph-name="X" unicode="X" horiz-adv-x="720" 
d="M717 10q0 10 -15 10h-2q-20 0 -32 16.5t-27 65.5l-221 717q-7 26 0 49q108 320 119 349q46 131 67.5 169.5t52.5 38.5h5q14 0 14 11q0 10 -14 10h-220q-14 0 -14 -10q0 -11 14 -11h43q9 0 18 -3t19 -13t14.5 -27t1.5 -48.5t-16 -73.5q-13 -41 -56.5 -175.5t-66.5 -207.5
l-143 466q-14 51 -10 66.5t24 15.5h37q15 0 15 11q0 10 -15 10h-284q-15 0 -15 -10q0 -11 15 -11h2q21 0 32.5 -16t26.5 -66l199 -645q6 -22 6 -28t-6 -23q-102 -300 -142 -418q-40 -116 -64.5 -162.5t-55.5 -46.5h-5q-14 0 -14 -10t14 -10h222q14 0 14 10t-14 10h-43
q-26 0 -39.5 15t-15 40t3 52.5t14.5 58.5q18 57 73 231t70 222l166 -537q14 -51 10 -66.5t-24 -15.5h-37q-15 0 -15 -10t15 -10h284q15 0 15 10z" />
    <glyph glyph-name="Y" unicode="Y" horiz-adv-x="720" 
d="M717 1436q0 10 -15 10h-221q-14 0 -14 -10q0 -11 14 -11h43q86 0 37 -165q-14 -47 -38.5 -125t-56.5 -178l-48 -150l-166 536q-14 51 -10 66.5t24 15.5h37q14 0 14 11q0 10 -14 10h-285q-14 0 -14 -10q0 -11 14 -11h2q21 0 33 -16t27 -66l170 -550q8 -24 8 -54v-645
q0 -74 -18 -74h-52q-14 0 -14 -10t14 -10h306q14 0 14 10t-14 10h-52q-18 0 -18 74v645q0 31 10 60q17 50 71 206t73 212q47 138 64 167q24 41 56 41h4q15 0 15 11z" />
    <glyph glyph-name="Z" unicode="Z" horiz-adv-x="677" 
d="M637 14v502q0 14 -12 14q-4 0 -6 -0.5t-4.5 -4t-2.5 -9.5v-78q0 -178 -75.5 -296.5t-190.5 -118.5h-160v2l420 1364q6 15 6 36t-20 21h-461q-14 0 -14 -14v-461q0 -15 12 -15t12 15v57q0 66 11.5 131t36 126.5t70.5 99.5t108 38h73v-2l-413 -1360q-7 -35 -7 -36
q0 -9 5.5 -17t15.5 -8h582q14 0 14 14z" />
    <glyph glyph-name="bracketleft" unicode="[" horiz-adv-x="573" 
d="M510 -567q0 10 -14 10h-170q-12 0 -15.5 9.5t-3.5 49.5v1876q0 40 3.5 50t15.5 10h170q14 0 14 10t-14 10h-246q-12 0 -14.5 -8t-2.5 -49v-1921q0 -41 2.5 -49.5t14.5 -8.5h246q14 0 14 11z" />
    <glyph glyph-name="backslash" unicode="\" horiz-adv-x="307" 
d="M418 -137l-502 1638q-4 15 -18 10q-12 -4 -9 -18l500 -1638q4 -14 19 -9q13 4 10 17z" />
    <glyph glyph-name="bracketright" unicode="]" horiz-adv-x="573" 
d="M340 -520v1921q0 42 -2 49.5t-14 7.5h-246q-15 0 -15 -10t15 -10h170q12 0 15 -9.5t3 -50.5v-1876q0 -41 -3 -50t-15 -9h-170q-15 0 -15 -10q0 -11 15 -11h246q12 0 14 8t2 50z" />
    <glyph glyph-name="asciicircum" unicode="^" horiz-adv-x="798" 
d="M719 821l-291 645q-10 19 -29 19q-17 0 -26 -19l-291 -645q-12 -23 8 -33q17 -9 31 19l280 627l279 -627q14 -28 31 -19q20 10 8 33z" />
    <glyph glyph-name="underscore" unicode="_" 
d="M553 -244v17q0 12 -21 12h-450q-21 0 -21 -12v-17q0 -12 21 -12h450q21 0 21 12z" />
    <glyph glyph-name="grave" unicode="`" 
d="M410 989q4 1 4 8t-2 11l-74 284q-5 20 -12.5 52.5t-11.5 48t-11 32.5t-16 27q-23 25 -53.5 15.5t-30.5 -44.5q0 -16 7 -37t13.5 -35t23 -44t21.5 -41l129 -265q7 -14 13 -12z" />
    <glyph glyph-name="a" unicode="a" horiz-adv-x="526" 
d="M526 102q-10 0 -10 -18q0 -32 -13 -54t-34 -22q-23 0 -23 47v570q0 126 -62.5 194t-141.5 68q-76 0 -127.5 -45.5t-51.5 -104.5q0 -42 22.5 -63t53.5 -21t51.5 21.5t20.5 60.5q0 26 -20.5 54.5t-20.5 44.5q0 13 14 23.5t47 10.5q78 0 78 -73v-179q0 -8 -0.5 -13.5t-2 -11
t-2 -9t-4 -8.5t-5 -7t-7 -7t-7.5 -7t-10 -8.5t-11 -9.5q-24 -21 -68.5 -51.5t-62.5 -45.5q-96 -80 -96 -241q0 -88 45.5 -155t120.5 -67q44 0 77 22.5t41 70.5h2q0 -37 28 -65t77 -28q53 0 82 28.5t29 82.5q0 16 -9 16zM309 141q0 -71 -21.5 -106t-51.5 -35q-48 0 -52 78
q-4 126 0 244q3 86 32 137t93 94v-412z" />
    <glyph glyph-name="b" unicode="b" horiz-adv-x="620" 
d="M580 430q0 213 -65.5 335t-168.5 122q-51 0 -82.5 -29t-42.5 -67h-2v643q0 12 -14 12h-191q-14 0 -14 -10q0 -9 14 -9h49q11 0 15 -18t4 -63v-1246q0 -45 -4 -63.5t-15 -18.5h-40q-15 0 -15 -8q0 -10 15 -10h176q16 0 16 10v66h2q12 -41 44.5 -71t84.5 -30
q103 0 168.5 121t65.5 334zM420 248q-7 -135 -25 -193.5t-67 -58.5q-45 0 -77 46.5t-32 100.5v564q0 55 31.5 107t77.5 52q49 0 67 -58.5t25 -193.5q8 -164 0 -366z" />
    <glyph glyph-name="c" unicode="c" horiz-adv-x="485" 
d="M473 313q0 21 -14 21q-13 0 -13 -28v-3q0 -145 -39 -224t-102 -79q-56 0 -78 62.5t-24 197.5q0 33 -1.5 111.5t-2 121.5t0 107.5t3.5 118.5q3 73 18 110t51 37q27 0 43.5 -10.5t16.5 -28.5q0 -15 -14.5 -39t-14.5 -51q0 -34 23.5 -54.5t54.5 -20.5q33 0 52.5 21.5
t19.5 57.5q0 61 -52 103.5t-125 42.5q-79 0 -133 -63t-78 -163.5t-24 -232.5t23.5 -230t81 -160.5t145.5 -62.5q46 0 80.5 24.5t53 60t30 84.5t15 88.5t3.5 80.5z" />
    <glyph glyph-name="d" unicode="d" horiz-adv-x="628" 
d="M612 10q0 8 -14 8h-41q-11 0 -14.5 18t-3.5 64v1334q0 12 -15 12h-190q-15 0 -15 -10q0 -9 15 -9h49q11 0 14.5 -17.5t3.5 -63.5v-555h-2q-11 38 -42.5 67t-82.5 29q-103 0 -168 -122t-65 -335t65 -334t168 -121q52 0 84.5 30t44.5 71h3v-66q0 -10 16 -10h176q14 0 14 10
zM401 143q0 -54 -31.5 -100.5t-76.5 -46.5q-49 0 -67 58.5t-25 193.5q-8 202 0 366q7 135 25 193.5t67 58.5q46 0 77 -52t31 -107v-564z" />
    <glyph glyph-name="e" unicode="e" horiz-adv-x="509" 
d="M485 313q0 21 -14 21q-2 0 -4 -0.5t-3 -1.5t-2 -2.5t-1.5 -3.5t-1 -3.5t-0.5 -4.5v-4v-6v-5q0 -141 -45 -222t-107 -81q-54 0 -78 64t-26 196q0 38 -2 117t-2 104q0 13 12 13h215q29 0 41 17t12 62q0 144 -57 229t-148 85q-63 0 -110 -39t-73 -106.5t-38 -145.5t-12 -168
q0 -132 23.5 -230t81 -160.5t145.5 -62.5q56 0 97 35.5t60.5 91.5t28 108.5t8.5 102.5zM338 528q0 -16 -16 -16h-113q-4 0 -5.5 0.5t-3 3t-1.5 8.5q0 136 2 195q3 74 17 110.5t48 36.5q32 0 47.5 -34.5t18.5 -110.5q6 -177 6 -193z" />
    <glyph glyph-name="f" unicode="f" horiz-adv-x="395" 
d="M479 1331q0 61 -53.5 100t-116.5 39q-57 0 -99.5 -27.5t-66 -74t-34.5 -100.5t-11 -115v-276q0 -15 -18 -15h-41q-19 0 -19 -10t19 -10h41q18 0 18 -13v-729q0 -46 -3.5 -64t-14.5 -18h-41q-14 0 -14 -8q0 -10 14 -10h285q14 0 14 10q0 8 -14 8h-70q-11 0 -14.5 18
t-3.5 64v729q0 13 18 13h111q18 0 18 10t-18 10h-111q-18 0 -18 15v518q0 59 61 59q22 0 35.5 -10t13.5 -25q0 -12 -17.5 -38t-17.5 -54q0 -35 26 -57.5t60 -22.5q36 0 59 23t23 61z" />
    <glyph glyph-name="g" unicode="g" horiz-adv-x="577" 
d="M586 772q0 51 -37 83t-84 32q-48 0 -84 -31q-3 -3 -5 -4.5t-3.5 -2.5t-3.5 0l-3 1l-4 4l-6 4q-42 29 -100 29q-73 0 -121.5 -47.5t-69 -122t-20.5 -172.5q0 -97 29.5 -188.5t99.5 -127.5q-68 1 -103.5 -36t-35.5 -87q0 -45 29.5 -78.5t74.5 -33.5q7 0 31 6v-4
q-64 -27 -107 -96.5t-43 -169.5q0 -79 22 -141.5t56.5 -99t73.5 -55t78 -18.5q57 0 99.5 24.5t66.5 65.5t35.5 88.5t11.5 100.5v225q0 46 3.5 63t14.5 17h31q14 0 14 8q0 10 -14 10h-225q-15 0 -15 -10q0 -8 15 -8h22q12 0 15.5 -17.5t3.5 -62.5v-326q0 -92 -20 -126.5
t-58 -34.5q-70 0 -76 145q-9 175 0 342q3 48 9 64t18 16h18q14 0 14 8q0 10 -14 10h-20q-24 -8 -43 -8q-90 0 -90 96q0 95 92 107q49 5 55 4q36 -6 45 -6q73 0 120.5 47t67 120.5t19.5 172.5q0 180 -72 270q-8 11 2 21q22 22 49 22q12 0 21.5 -7t9.5 -19t-8 -33t-8 -37
q0 -30 19 -49t46 -19q29 0 45.5 20t16.5 52zM332 422q0 -7 -1 -42t-3.5 -53t-9.5 -44.5t-22.5 -39t-39.5 -12.5q-25 0 -41 18t-22.5 48.5t-9 56t-3.5 53.5v9q-6 131 0 262q1 9 1.5 29.5t1.5 34.5t3 34.5t7.5 34t13 27t21 20t30.5 6.5q67 0 73 -148q0 -7 1 -21v-13
q6 -130 0 -260z" />
    <glyph glyph-name="h" unicode="h" horiz-adv-x="630" 
d="M618 10q0 8 -14 8h-41q-11 0 -14.5 18t-3.5 64v559q0 55 -14 97.5t-34.5 66.5t-47 39t-48 20t-41.5 5q-51 0 -82 -21.5t-53 -70.5h-2v641q0 10 -16 10h-189q-14 0 -14 -10q0 -9 14 -9h50q11 0 14.5 -17.5t3.5 -63.5v-1246q0 -46 -3.5 -64t-14.5 -18h-41q-15 0 -15 -8
q0 -10 15 -10h243q15 0 15 10q0 8 -15 8h-28q-11 0 -15 18.5t-4 63.5v619q0 48 31.5 97.5t81.5 49.5q43 0 57.5 -27t14.5 -75v-664q0 -45 -4 -63.5t-15 -18.5h-29q-14 0 -14 -8q0 -10 14 -10h244q14 0 14 10z" />
    <glyph glyph-name="i" unicode="i" horiz-adv-x="325" 
d="M248 1335q0 40 -25.5 67.5t-62.5 27.5t-63.5 -27.5t-26.5 -67.5q0 -39 26.5 -65.5t63.5 -26.5t62.5 26.5t25.5 65.5zM301 10q0 8 -14 8h-41q-11 0 -15 18.5t-4 63.5v752q0 10 -16 10h-188q-15 0 -15 -10q0 -8 15 -8h49q11 0 14.5 -18t3.5 -64v-662q0 -46 -3.5 -64
t-14.5 -18h-41q-15 0 -15 -8q0 -10 15 -10h256q14 0 14 10z" />
    <glyph glyph-name="j" unicode="j" horiz-adv-x="317" 
d="M246 1335q0 40 -25.5 67.5t-62.5 27.5t-63.5 -27.5t-26.5 -67.5q0 -39 26.5 -65.5t63.5 -26.5t62.5 26.5t25.5 65.5zM225 -266v1118q0 10 -16 10h-189q-14 0 -14 -10q0 -8 14 -8h50q11 0 14.5 -18t3.5 -64v-1270q0 -29 -12 -44t-45 -15q-14 0 -26.5 8.5t-12.5 19.5
q0 23 12 44t12 51q0 34 -25 55.5t-57 21.5q-34 0 -55.5 -22.5t-21.5 -59.5q0 -58 54 -96.5t116 -38.5q88 0 143 88t55 230z" />
    <glyph glyph-name="k" unicode="k" horiz-adv-x="620" 
d="M600 102q-10 0 -10 -18q0 -32 -13 -54t-34 -22q-11 0 -17.5 4.5t-8.5 17t-2.5 17.5t-0.5 23v161q0 120 -66.5 187t-148.5 67v2q41 23 41 91q0 32 -9 95t-9 95q0 44 21 68t46 24q23 0 23 -18q0 -5 -16.5 -30.5t-16.5 -47.5q0 -36 25.5 -59t60.5 -23q36 0 60 25t24 63
q0 52 -37.5 84.5t-81.5 32.5q-60 0 -94.5 -34.5t-34.5 -96.5q0 -26 9 -86.5t9 -89.5q0 -95 -69 -95h-12q-15 0 -15 9v942q0 10 -16 10h-189q-14 0 -14 -10q0 -9 14 -9h50q11 0 14.5 -17.5t3.5 -63.5v-1246q0 -46 -3.5 -64t-14.5 -18h-41q-15 0 -15 -8q0 -10 15 -10h256
q14 0 14 10q0 8 -14 8h-41q-11 0 -15 18.5t-4 63.5v359q0 10 15 10h34q23 0 37 -3.5t32.5 -18t28 -50t9.5 -92.5q0 -32 -1 -95.5t-1 -94.5q0 -60 35 -100t86 -40q53 0 81.5 28.5t28.5 82.5q0 16 -8 16z" />
    <glyph glyph-name="l" unicode="l" horiz-adv-x="325" 
d="M301 10q0 8 -14 8h-41q-11 0 -15 18.5t-4 63.5v1336q0 10 -16 10h-188q-15 0 -15 -10q0 -9 15 -9h49q11 0 14.5 -17.5t3.5 -63.5v-1246q0 -46 -3.5 -64t-14.5 -18h-41q-15 0 -15 -8q0 -10 15 -10h256q14 0 14 10z" />
    <glyph glyph-name="m" unicode="m" horiz-adv-x="919" 
d="M907 10q0 8 -14 8h-41q-11 0 -14.5 18t-3.5 64v559q0 55 -13 97.5t-32.5 66.5t-44.5 39t-45.5 20t-39.5 5q-63 0 -98 -38t-45 -95h-2q-21 74 -67.5 103.5t-92.5 29.5q-101 0 -133 -101h-2v66q0 10 -16 10h-185q-14 0 -14 -10q0 -8 14 -8h50q11 0 14.5 -18t3.5 -64v-662
q0 -46 -3.5 -64t-14.5 -18h-41q-15 0 -15 -8q0 -10 15 -10h243q15 0 15 10q0 8 -15 8h-28q-11 0 -15 18.5t-4 63.5v619q0 50 29.5 98.5t79.5 48.5q59 0 59 -102v-664q0 -46 -3.5 -64t-14.5 -18h-29q-14 0 -14 -8q0 -10 14 -10h231q15 0 15 10q0 8 -15 8h-28q-11 0 -15 18.5
t-4 63.5v619q0 50 29.5 98.5t79.5 48.5q59 0 59 -102v-664q0 -46 -3.5 -64t-14.5 -18h-29q-14 0 -14 -8q0 -10 14 -10h244q14 0 14 10z" />
    <glyph glyph-name="n" unicode="n" horiz-adv-x="630" 
d="M618 10q0 8 -14 8h-41q-11 0 -14.5 18t-3.5 64v559q0 55 -14 97.5t-34.5 66.5t-47 39t-48 20t-41.5 5q-99 0 -139 -101h-2v66q0 10 -16 10h-185q-14 0 -14 -10q0 -8 14 -8h50q11 0 14.5 -18t3.5 -64v-662q0 -46 -3.5 -64t-14.5 -18h-41q-15 0 -15 -8q0 -10 15 -10h243
q15 0 15 10q0 8 -15 8h-28q-11 0 -15 18.5t-4 63.5v619q0 48 31.5 97.5t81.5 49.5q43 0 57.5 -27t14.5 -75v-664q0 -45 -4 -63.5t-15 -18.5h-29q-14 0 -14 -8q0 -10 14 -10h244q14 0 14 10z" />
    <glyph glyph-name="o" unicode="o" horiz-adv-x="604" 
d="M563 436q0 87 -14.5 164.5t-44 143.5t-82 104.5t-121.5 38.5q-72 0 -124.5 -39t-81 -106.5t-41.5 -145t-13 -168.5q0 -87 14.5 -164.5t44 -144t82 -105.5t121.5 -39q58 0 103.5 26.5t74.5 70t48 104.5t26.5 124.5t7.5 135.5zM401 246q-7 -140 -10 -159q-12 -76 -59 -89
q-13 -4 -29 -4q-26 0 -43 9.5t-27 26t-15 43t-7 55.5t-4 69q0 11 -0.5 16.5t-1 15t-0.5 17.5q-9 185 0 370q7 140 10 159q12 76 59 89q13 4 29 4q26 0 43 -9.5t27 -26t15 -43t7 -55.5t4 -69q0 -11 0.5 -16.5t1 -15t0.5 -17.5q9 -185 0 -370z" />
    <glyph glyph-name="p" unicode="p" horiz-adv-x="624" 
d="M584 432q0 213 -65.5 334t-168.5 121q-52 0 -84.5 -30t-44.5 -71h-2v66q0 10 -16 10h-185q-14 0 -14 -10q0 -8 14 -8h50q11 0 14.5 -18t3.5 -64v-1245q0 -46 -3.5 -64t-14.5 -18h-50q-14 0 -14 -8q0 -11 14 -11h293q15 0 15 11q0 8 -15 8h-69q-11 0 -15 18.5t-4 63.5v555
h2q11 -38 42.5 -67.5t82.5 -29.5q103 0 168.5 122t65.5 335zM424 248q-7 -135 -25 -193.5t-67 -58.5q-46 0 -77.5 52.5t-31.5 107.5v563q0 54 32 100.5t77 46.5q49 0 67 -58.5t25 -193.5q8 -202 0 -366z" />
    <glyph glyph-name="q" unicode="q" horiz-adv-x="636" 
d="M621 -573q0 8 -15 8h-49q-11 0 -14.5 18t-3.5 64v1245q0 46 3.5 64t14.5 18h41q14 0 14 8q0 10 -14 10h-176q-16 0 -16 -10v-66h-3q-12 41 -44.5 71t-84.5 30q-103 0 -168 -121t-65 -334t65 -335t168 -122q51 0 82.5 29.5t42.5 67.5h2v-555q0 -46 -3.5 -64t-14.5 -18h-70
q-14 0 -14 -8q0 -11 14 -11h293q15 0 15 11zM401 156q0 -55 -31 -107.5t-77 -52.5q-49 0 -67 58.5t-25 193.5q-8 164 0 366q7 135 25 193.5t67 58.5q45 0 76.5 -46.5t31.5 -100.5v-563z" />
    <glyph glyph-name="r" unicode="r" horiz-adv-x="487" 
d="M471 754q0 61 -43 97t-90 36q-42 0 -73 -27t-46 -74h-2v66q0 10 -16 10h-183q-14 0 -14 -10q0 -8 14 -8h50q11 0 14.5 -18t3.5 -64v-662q0 -46 -3.5 -64t-14.5 -18h-41q-15 0 -15 -8q0 -10 15 -10h284q15 0 15 10q0 8 -15 8h-69q-11 0 -15 18.5t-4 63.5v619q0 50 28 98.5
t73 48.5q26 0 26 -26q0 -9 -21.5 -39.5t-21.5 -61.5q0 -35 23.5 -57.5t58.5 -22.5q38 0 60 27.5t22 67.5z" />
    <glyph glyph-name="s" unicode="s" horiz-adv-x="436" 
d="M416 215q0 59 -16.5 109t-43 86t-58 68t-63.5 62t-58.5 60.5t-43 70.5t-16.5 85q0 25 6.5 48t28.5 43.5t57 20.5q50 0 89.5 -61.5t39.5 -192.5v-14q0 -12 10 -12t10 12v264q0 15 -10 15t-10 -15v-8q0 -12 -21 -2q-55 33 -102 33q-45 0 -80 -23t-54 -60t-28.5 -76.5
t-9.5 -78.5q0 -58 16.5 -107.5t43 -85t58 -67.5t63.5 -61t58.5 -59t43 -69.5t16.5 -84.5t-31 -83t-90 -38q-162 0 -162 303v14q0 11 -10 11t-10 -11v-301q0 -14 10 -14t10 14v6q0 4 1.5 6t4.5 1.5t5 -1.5t5.5 -2.5t4.5 -1.5q80 -43 143 -43q79 0 136 64.5t57 175.5z" />
    <glyph glyph-name="t" unicode="t" horiz-adv-x="380" 
d="M383 143q0 19 -12 19q-13 0 -13 -27q0 -69 -19 -102t-50 -33q-20 0 -32.5 10t-17.5 30.5t-6.5 39t-1.5 47.5v702q0 13 19 13h110q19 0 19 10t-19 10h-110q-19 0 -19 15v309q0 16 -12 16q-10 0 -18 -12q-15 -26 -41.5 -57.5t-48.5 -45.5q-17 -11 -17 -26v-184
q0 -15 -18 -15h-41q-19 0 -19 -10t19 -10h41q18 0 18 -13v-630q0 -96 46 -160t122 -64q59 0 90 37.5t31 130.5z" />
    <glyph glyph-name="u" unicode="u" horiz-adv-x="622" 
d="M602 10q0 8 -14 8h-49q-11 0 -15 18.5t-4 63.5v752q0 10 -14 10h-182q-15 0 -15 -10q0 -8 15 -8h41q11 0 14.5 -18t3.5 -64v-619q0 -50 -29.5 -98.5t-79.5 -48.5q-59 0 -59 102v754q0 10 -14 10h-183q-14 0 -14 -10q0 -8 14 -8h41q11 0 15 -18.5t4 -63.5v-559
q0 -55 13 -97.5t32 -66.5t44 -39t45.5 -20t39.5 -5q101 0 133 101h2v-66q0 -10 16 -10h185q14 0 14 10z" />
    <glyph glyph-name="v" unicode="v" horiz-adv-x="585" 
d="M582 852q0 10 -15 10h-196q-15 0 -15 -10q0 -8 15 -8h22q62 0 62 -99q0 -63 -29 -188l-80 -336h-2l-133 541q-19 82 10 82h33q14 0 14 8q0 10 -14 10h-236q-14 0 -14 -10q0 -8 14 -8h7q12 0 21.5 -17.5t21.5 -64.5l202 -774q3 -13 13 -13h16q9 0 12 13l140 571
q24 99 45 166q3 9 9.5 34.5t10 35t11 24t17 20t23.5 5.5q15 0 15 8z" />
    <glyph glyph-name="w" unicode="w" horiz-adv-x="962" 
d="M958 852q0 10 -14 10h-196q-15 0 -15 -10q0 -8 15 -8h22q61 0 61 -99q0 -68 -28 -188l-80 -336h-2l-133 541q-19 82 10 82h33q14 0 14 8q0 10 -14 10h-260q-15 0 -15 -10q0 -8 15 -8h22q62 0 62 -99q0 -63 -29 -188l-80 -336h-2l-133 541q-19 82 10 82h33q14 0 14 8
q0 10 -14 10h-236q-14 0 -14 -10q0 -8 14 -8h7q12 0 21.5 -17.5t21.5 -64.5l202 -774q3 -13 13 -13h16q9 0 12 13l160 667h2l174 -667q3 -13 12 -13h17q9 0 12 13l139 571q24 99 45 166q3 9 8.5 29t8 29.5t8.5 23.5t11.5 20.5t15 11.5t20.5 5q14 0 14 8z" />
    <glyph glyph-name="x" unicode="x" horiz-adv-x="516" 
d="M512 10q0 8 -14 8h-6q-9 0 -18.5 15.5t-27.5 64.5l-133 367q-6 14 0 31q5 14 34.5 97.5t43.5 125.5q26 75 40 99t38 24q14 0 14 10t-14 10h-141q-15 0 -15 -10q0 -8 15 -8h26q12 0 20 -9t9.5 -31t-8.5 -59q-17 -61 -76 -237l-92 252q-11 30 -15 49.5t-1.5 27t8.5 7.5h28
q15 0 15 8q0 10 -15 10h-209q-14 0 -14 -10q0 -8 14 -8h7q9 0 18 -15t27 -65l120 -334q4 -16 0 -31q-66 -191 -90 -256q-29 -80 -41.5 -101.5t-35.5 -21.5q-15 0 -15 -10t15 -10h143q14 0 14 10q0 8 -14 8h-27q-13 0 -20.5 9t-9.5 31t10 59q6 20 23 75t33.5 107t29.5 90
l104 -287q11 -30 15 -49.5t1.5 -27t-8.5 -7.5h-28q-15 0 -15 -8q0 -10 15 -10h209q14 0 14 10z" />
    <glyph glyph-name="y" unicode="y" horiz-adv-x="585" 
d="M582 852q0 10 -15 10h-196q-15 0 -15 -10q0 -8 15 -8h22q62 0 62 -99q0 -63 -29 -188l-80 -336h-2l-133 541q-19 82 10 82h33q14 0 14 8q0 10 -14 10h-236q-14 0 -14 -10q0 -8 14 -8h7q12 0 21.5 -17.5t21.5 -64.5l186 -707q5 -19 12 -43t11 -39t4 -24v-395
q0 -56 -24.5 -87.5t-63.5 -31.5q-13 0 -25 8t-12 18q0 19 13 40.5t13 49.5q0 34 -24.5 56t-57.5 22q-34 0 -55.5 -22.5t-21.5 -59.5q0 -58 45.5 -94.5t103.5 -36.5q65 0 98 40t33 106v387q0 8 25 106l123 504q24 99 45 166q3 9 9.5 34.5t10 35t11 24t17 20t23.5 5.5
q15 0 15 8z" />
    <glyph glyph-name="z" unicode="z" horiz-adv-x="483" 
d="M461 14v361q0 12 -10 12q-11 0 -11 -12v-35q0 -62 -3.5 -105.5t-14.5 -87t-31 -69.5t-54 -42t-83 -16h-104v5l288 802q4 12 4 23q0 12 -12 12h-348q-10 0 -10 -14v-297q0 -12 10 -12t10 12v35q0 45 1.5 72.5t11.5 67t28.5 61.5t54.5 38.5t88 16.5h27v-2l-287 -803
q-4 -12 -4 -23q0 -14 13 -14h426q10 0 10 14z" />
    <glyph glyph-name="braceleft" unicode="{" horiz-adv-x="573" 
d="M475 -571q0 10 -14 10q-207 13 -207 231q0 86 25.5 193.5t51 203.5t25.5 154q0 88 -40.5 146t-122.5 75v2q82 17 122.5 75.5t40.5 146.5q0 58 -25.5 154t-51 203.5t-25.5 193.5q0 218 207 231q14 0 14 10q0 12 -14 12q-83 -10 -145.5 -41t-96 -74.5t-49.5 -89.5t-16 -94
q0 -59 28 -133.5t62 -134t62 -131.5t28 -127q0 -91 -55 -140.5t-150 -49.5h-14q-17 0 -17 -13q0 -10 17 -10h14q95 0 150 -49.5t55 -140.5q0 -55 -28 -127.5t-62 -131.5t-62 -134t-28 -134q0 -48 16 -94t49.5 -89.5t96 -74.5t145.5 -41q14 0 14 13z" />
    <glyph glyph-name="bar" unicode="|" horiz-adv-x="307" 
d="M168 -569v2039q0 15 -14 15q-15 0 -15 -15v-2039q0 -15 15 -15q14 0 14 15z" />
    <glyph glyph-name="braceright" unicode="}" horiz-adv-x="573" 
d="M475 444q0 11 -16 11h-15q-95 0 -149.5 49.5t-54.5 140.5q0 55 28 127t62 131.5t62 134t28 133.5q0 48 -16 94t-49.5 89.5t-96 74.5t-145.5 41q-15 0 -15 -12q0 -10 15 -10q206 -13 206 -231q0 -86 -25.5 -193.5t-51 -203.5t-25.5 -154q0 -88 41 -146.5t123 -75.5v-2
q-82 -17 -123 -75t-41 -146q0 -58 25.5 -154t51 -203.5t25.5 -193.5q0 -218 -206 -231q-15 0 -15 -10q0 -13 15 -13q83 10 145.5 41t96 74.5t49.5 89.5t16 94q0 59 -28 134t-62 134t-62 131.5t-28 127.5q0 91 54.5 140.5t149.5 49.5h15q16 0 16 12z" />
    <glyph glyph-name="asciitilde" unicode="~" horiz-adv-x="798" 
d="M754 664q7 26 -13 32q-17 6 -26 -20q-11 -35 -20.5 -56.5t-24.5 -45t-36.5 -35t-49.5 -11.5q-59 0 -180.5 52.5t-182.5 52.5q-71 0 -111.5 -47t-64.5 -125q-8 -27 12 -33q18 -6 27 21q12 35 21 56.5t24 45.5t36.5 35.5t49.5 11.5q50 0 176 -52t187 -52q71 0 111.5 46
t64.5 124z" />
    <glyph glyph-name="nbsp" unicode="&#xa0;" horiz-adv-x="307" 
 />
    <glyph glyph-name="exclamdown" unicode="&#xa1;" horiz-adv-x="512" 
d="M344 791q0 41 -24 67.5t-62 26.5t-62 -26.5t-24 -67.5t24 -67t62 -26t62 26t24 67zM362 -479q0 92 -23.5 247t-47 335t-23.5 333v107q0 18 -12 18q-14 0 -14 -18v-107q0 -153 -23 -333t-46 -335t-23 -247q0 -48 28 -83.5t76 -35.5q49 0 78.5 36t29.5 83z" />
    <glyph glyph-name="cent" unicode="&#xa2;" horiz-adv-x="585" 
d="M565 432q0 29 -14 29t-14 -29q2 -72 -6 -142t-25.5 -136t-53 -107t-83.5 -41q-121 0 -140 266l183 637q15 -10 39 -10q35 0 61.5 28.5t26.5 80.5q0 76 -60 139l66 231q6 20 -8 23q-16 3 -21 -15l-61 -217q-55 45 -125 45q-95 0 -158.5 -82.5t-92 -219.5t-28.5 -322
q0 -341 94 -494l-73 -258q-6 -20 12 -24q12 -3 18 14l68 235q72 -88 178 -88q54 0 94.5 32.5t63 80.5t37 113.5t18.5 120t4 110.5zM416 1137q0 -27 -25.5 -68.5t-25.5 -71.5q0 -36 20 -63l-160 -561q0 45 -1.5 150t-2 163t0 144.5t3.5 158.5q1 25 2 41t4 43.5t10 45.5t18 37
t28.5 28.5t40.5 9.5q43 0 65.5 -17.5t22.5 -39.5z" />
    <glyph glyph-name="sterling" unicode="&#xa3;" 
d="M600 393q0 23 -12 23q-15 0 -15 -23q0 -119 -26.5 -173t-106.5 -54q-20 0 -44 4t-40.5 8t-45 12t-40.5 11q2 135 -10 409h209q8 0 8 15q0 12 -8 12h-209q-6 183 -6 240q0 168 23.5 242.5t82.5 74.5q31 0 49.5 -17.5t18.5 -41.5q0 -27 -21.5 -69.5t-21.5 -72.5
q0 -42 24 -71t62 -29q37 0 63.5 29.5t26.5 81.5q0 85 -64 147.5t-141 62.5q-48 0 -98 -27.5t-91 -73.5t-67 -112.5t-26 -138.5q0 -105 51 -225h-94q-11 0 -11 -14q0 -13 11 -13h106q8 -17 25.5 -54t23.5 -50.5t18.5 -44t17 -46t12.5 -43.5t10.5 -50.5t5 -53t2.5 -63.5
q-40 8 -64 8q-47 0 -72.5 -32t-25.5 -79q0 -42 21.5 -72t60.5 -30q81 0 96 141q13 -16 33.5 -51t35 -56.5t42 -40t61.5 -18.5q33 0 61 23t50.5 71t35.5 131t13 193zM252 160q-9 -142 -80 -142q-30 0 -45.5 26t-15.5 58q0 34 16.5 62.5t48.5 28.5q39 0 76 -33z" />
    <glyph glyph-name="currency" unicode="&#xa4;" horiz-adv-x="624" 
d="M614 182q0 55 -26 82t-64 27q-40 0 -65 -29t-25 -69q0 -29 27.5 -69t27.5 -71q0 -24 -22.5 -40.5t-60.5 -16.5q-69 0 -100 79t-32 287q0 21 -1 63t-1 64h215q11 0 11 13q0 14 -11 14h-215q0 30 -1 89t-1 89h217q11 0 11 13q0 14 -11 14h-217q0 178 4 268q6 205 109 205
q43 0 65.5 -17.5t22.5 -39.5q0 -27 -25.5 -68.5t-25.5 -71.5q0 -41 26 -69.5t60 -28.5q35 0 61.5 28.5t26.5 80.5q0 72 -60 139t-149 67q-123 0 -194 -133t-87 -360h-79q-11 0 -11 -12q0 -15 11 -15h77q-2 -33 -2 -104q0 -12 1 -37t1 -37h-77q-11 0 -11 -12q0 -15 11 -15h77
q12 -247 86 -380.5t209 -133.5q90 0 153.5 66.5t63.5 140.5z" />
    <glyph glyph-name="yen" unicode="&#xa5;" 
d="M608 1182q0 10 -14 10h-188q-15 0 -15 -10q0 -11 15 -11h12q51 0 58 -51t-19 -149q-25 -101 -99 -375l-120 494q-12 51 -9.5 66t21.5 15h22q15 0 15 11q0 10 -15 10h-252q-14 0 -14 -10q0 -11 14 -11h9q19 0 29.5 -15.5t23.5 -65.5l133 -506h-147q-11 0 -11 -13
q0 -12 11 -12h151q0 -3 1 -10t1 -10v-445q0 -74 -18 -74h-51q-15 0 -15 -10t15 -10h290q15 0 15 10t-15 10h-51q-18 0 -18 74v445q0 14 2 20h166q8 0 8 14q0 11 -8 11h-162q13 45 51.5 190.5t50.5 188.5q35 127 55.5 167.5t53.5 40.5h4q14 0 14 11z" />
    <glyph glyph-name="brokenbar" unicode="&#xa6;" horiz-adv-x="454" 
d="M307 674v782q0 29 -22 29q-21 0 -21 -29v-782q0 -29 23 -29q20 0 20 29zM307 -555v782q0 29 -22 29q-21 0 -21 -29v-782q0 -29 23 -29q20 0 20 29z" />
    <glyph glyph-name="section" unicode="&#xa7;" horiz-adv-x="747" 
d="M717 168q0 103 -27.5 205t-71.5 185.5t-97.5 163.5t-107 150t-97.5 132.5t-71.5 124t-27.5 112.5q0 81 60.5 139t140.5 58t80 -60q0 -10 -14.5 -40t-14.5 -58q0 -45 26.5 -74.5t65.5 -29.5q38 0 63 32.5t25 77.5q0 83 -57.5 133.5t-138.5 50.5q-96 0 -175 -58.5
t-127 -151t-74 -199t-26 -211.5q0 -120 36.5 -236.5t90.5 -205.5t118 -180t118 -163t90.5 -152t36.5 -149q0 -92 -63.5 -156.5t-153.5 -64.5q-32 0 -59 17.5t-27 48.5q0 13 15 44t15 62q0 50 -28 81.5t-70 31.5q-41 0 -68.5 -34.5t-27.5 -84.5q0 -85 62 -143t153 -58
q84 0 156 42.5t121 111.5t84 156.5t51 176.5t16 173zM664 20q0 -90 -50 -223q0 89 -28 179.5t-73.5 170t-100 160t-109 162t-100 162t-73.5 173.5t-28 185t48 211q0 -81 28.5 -165t73.5 -159.5t100 -154t110 -160t100 -164.5t73.5 -181t28.5 -196z" />
    <glyph glyph-name="dieresis" unicode="&#xa8;" 
d="M522 1341q0 38 -24.5 63.5t-59.5 25.5q-36 0 -61 -25.5t-25 -63.5t25 -62t61 -24t60 24t24 62zM262 1341q0 38 -24.5 63.5t-59.5 25.5q-36 0 -61 -25.5t-25 -63.5t25 -62t61 -24t60 24t24 62z" />
    <glyph glyph-name="copyright" unicode="&#xa9;" horiz-adv-x="1169" 
d="M1108 735q0 314 -140.5 506.5t-385.5 192.5q-168 0 -287 -90.5t-176.5 -249t-57.5 -371.5q0 -314 140 -506t385 -192q168 0 287 90t177 248.5t58 371.5zM1079 735q0 -313 -126.5 -496.5t-366.5 -183.5q-232 0 -364 183t-132 485q0 206 54 357.5t166 238t272 86.5
q232 0 364.5 -184t132.5 -486zM786 260v322q0 14 -12 14q-10 0 -10 -14v-19q0 -144 -39.5 -228.5t-103.5 -84.5q-23 0 -40 8t-28.5 27.5t-19 40.5t-11.5 57.5t-6 68.5t-4 83q-6 205 0 409q1 36 2.5 60t3.5 54t5 49.5t7.5 42t11 36t15 25t20 17t25.5 5.5q48 0 90.5 -83.5
t42.5 -209.5v-12q0 -13 10 -13q11 0 11 13v295q0 16 -11 16q-10 0 -10 -16v-9q-3 -6 -7 -4t-9 7q-21 16 -55 25t-58 9q-83 0 -142 -69.5t-87.5 -185.5t-28.5 -265q0 -85 15 -169t44.5 -160t82 -123.5t120.5 -47.5q70 0 135 37q19 13 19 0v-8q0 -16 10 -16q12 0 12 16z" />
    <glyph glyph-name="ordfeminine" unicode="&#xaa;" horiz-adv-x="438" 
d="M401 666q-10 0 -10 -17q0 -22 -8.5 -35.5t-22.5 -13.5t-14 31v397q0 90 -44.5 138t-100.5 48q-54 0 -90.5 -32t-36.5 -74q0 -31 16 -46t39 -15t37 15.5t14 43.5q0 19 -14 39t-14 31q0 22 41 22q53 0 53 -51v-123q0 -8 -1 -14.5t-6 -13t-6.5 -8.5t-11 -10t-10.5 -9
q-16 -13 -47 -34.5t-45 -33.5q-68 -59 -68 -172q0 -63 32.5 -110.5t86.5 -47.5q70 0 84 64h2q0 -27 19.5 -45.5t54.5 -18.5q36 0 58.5 20.5t23.5 57.5q0 17 -11 17zM246 686q0 -48 -14.5 -71t-34.5 -23q-35 0 -35 53q-4 88 0 172q1 59 21 94t63 66v-291z" />
    <glyph glyph-name="guillemotleft" unicode="&#xab;" 
d="M573 150q2 9 -10 12q-62 18 -90 54t-39 87q-10 44 -10 141q0 98 10 142q11 51 39 87t90 54q12 3 10 12q-3 14 -12 11q-110 -32 -187 -113t-77 -193t77 -192.5t187 -112.5q9 -3 12 11zM317 150q2 9 -10 12q-62 18 -90 54t-39 87q-10 44 -10 141q0 98 10 142q11 51 39 87
t90 54q12 3 10 12q-3 14 -12 11q-110 -32 -187 -113t-77 -193t77 -192.5t187 -112.5q9 -3 12 11z" />
    <glyph glyph-name="logicalnot" unicode="&#xac;" horiz-adv-x="798" 
d="M758 336v321q0 29 -25 29h-665q-27 0 -27 -20q0 -19 27 -19h647v-311q0 -29 22 -29q21 0 21 29z" />
    <glyph glyph-name="registered" unicode="&#xae;" horiz-adv-x="1169" 
d="M1108 735q0 314 -140.5 506.5t-385.5 192.5q-168 0 -287 -90.5t-176.5 -249t-57.5 -371.5q0 -314 140 -506t385 -192q168 0 287 90t177 248.5t58 371.5zM1079 735q0 -313 -126.5 -496.5t-366.5 -183.5q-232 0 -364 183t-132 485q0 206 54 357.5t166 238t272 86.5
q232 0 364.5 -184t132.5 -486zM895 328q-12 0 -12 -17q-4 -55 -37 -55q-39 0 -39 66q0 18 1 81.5t1 85.5q0 121 -57 192.5t-142 84.5v2q85 16 131.5 85t46.5 144q0 115 -51.5 176.5t-126.5 61.5h-270q-10 0 -10 -8q0 -10 10 -10h35q12 0 12 -48v-856q0 -47 -12 -47h-35
q-10 0 -10 -8q0 -10 10 -10h229q13 0 13 8q0 10 -13 10h-34q-11 0 -11 47v437q0 8 11 8h24q36 0 60.5 -15t35.5 -43t15 -55.5t4 -64.5q0 -35 -1 -100.5t-1 -100.5q0 -61 39.5 -104.5t99.5 -43.5q87 0 94 80q0 17 -10 17zM651 991q0 -59 -2.5 -94.5t-10.5 -66.5t-25 -44.5
t-44 -13.5h-37q-8 0 -8 6v430q0 9 11 9h38q25 0 41 -17.5t23.5 -51t10.5 -70t3 -87.5z" />
    <glyph glyph-name="macron" unicode="&#xaf;" 
d="M449 1325q0 -12 -21 -12h-242q-20 0 -20 12v57q0 13 20 13h242q21 0 21 -13v-57z" />
    <glyph glyph-name="degree" unicode="&#xb0;" horiz-adv-x="573" 
d="M479 967q0 110 -52.5 178.5t-139.5 68.5t-140 -68.5t-53 -178.5t53 -179t140 -69t139.5 69t52.5 179zM436 967q0 -219 -149 -219q-150 0 -150 219t150 219q149 0 149 -219z" />
    <glyph glyph-name="uni00B2" unicode="&#xb2;" horiz-adv-x="460" 
d="M399 371v176q0 8 -8 8t-8 -8v-41q0 -30 -9.5 -40.5t-35.5 -10.5h-207v2q128 161 183 271.5t55 236.5q0 69 -20.5 121t-51.5 77.5t-60 37t-55 11.5q-65 0 -105 -49.5t-40 -103.5q0 -39 19 -60.5t44 -21.5t42.5 21.5t17.5 52.5q0 22 -18.5 53t-18.5 51q0 15 13 28t38 13
q23 0 35.5 -12t22.5 -66.5t10 -159.5q0 -74 -1 -115t-4.5 -91.5t-12.5 -81t-22.5 -68t-36.5 -70t-53 -69.5t-73 -82q-4 -4 -4 -10q0 -3 2 -7t4 -4h352q6 0 6 11z" />
    <glyph glyph-name="uni00B3" unicode="&#xb3;" horiz-adv-x="434" 
d="M373 657q0 70 -16 122.5t-42.5 81t-52 43t-51.5 18.5v2q143 53 143 243q0 107 -50 165.5t-124 58.5q-56 0 -95.5 -44.5t-39.5 -111.5q0 -34 15.5 -54t39.5 -20q18 0 35 14.5t17 47.5q0 23 -18.5 48t-18.5 42q0 24 12 42.5t41 18.5q41 0 54.5 -46t13.5 -167
q0 -120 -10.5 -175.5t-37.5 -55.5h-45q-10 0 -10 -10q0 -11 10 -11h45q14 0 22.5 -5t17 -21t13 -53t5.5 -95q0 -6 1 -93t-1 -93q0 -189 -70 -189q-29 0 -46 21.5t-17 44.5q0 17 18.5 41t18.5 49q0 32 -16 49t-36 17q-28 0 -42.5 -22t-14.5 -56q0 -58 38 -109t105 -51
q59 0 103 43.5t65 113.5t21 156z" />
    <glyph glyph-name="acute" unicode="&#xb4;" 
d="M412 1423q0 35 -30.5 44.5t-53.5 -15.5q-9 -10 -16.5 -27.5t-11 -32t-11.5 -48.5t-13 -52l-73 -284q-2 -4 -2 -11t4 -8q6 -1 12 12l129 265q6 12 21.5 40.5t23 43.5t14.5 36t7 37z" />
    <glyph glyph-name="mu" unicode="&#xb5;" 
d="M602 10q0 8 -14 8h-49q-11 0 -15 18.5t-4 63.5v752q0 10 -14 10h-182q-15 0 -15 -10q0 -8 15 -8h41q11 0 14.5 -18t3.5 -64v-619q0 -50 -29.5 -98.5t-79.5 -48.5q-59 0 -59 102v754q0 10 -14 10h-183q-14 0 -14 -10q0 -8 14 -8h41q11 0 15 -18.5t4 -63.5v-1264
q0 -34 16 -57t43 -23q25 0 40.5 19.5t15.5 50.5t-16 93.5t-34.5 130t-34.5 177t-16 222.5q13 -49 44.5 -81.5t60.5 -43.5t55 -11q101 0 133 101h2v-66q0 -10 16 -10h185q14 0 14 10z" />
    <glyph glyph-name="paragraph" unicode="&#xb6;" horiz-adv-x="714" 
d="M694 1436q0 10 -18 10h-289q-86 0 -151.5 -36t-103 -98t-55.5 -135t-18 -155q0 -201 81.5 -322.5t246.5 -121.5h102v-777q0 -103 -41 -147.5t-98 -44.5q-22 0 -35.5 10t-13.5 25q0 12 17.5 38t17.5 54q0 35 -26 57.5t-60 22.5q-36 0 -59 -23t-23 -61q0 -62 56 -101
t122 -39q91 0 147 88.5t56 229.5v1433q0 46 3.5 64t14.5 18h109q18 0 18 11z" />
    <glyph glyph-name="periodcentered" unicode="&#xb7;" horiz-adv-x="307" 
d="M240 557q0 41 -24 66.5t-62 25.5t-62 -25.5t-24 -66.5t24 -67.5t62 -26.5t62 26.5t24 67.5z" />
    <glyph glyph-name="cedilla" unicode="&#xb8;" 
d="M428 -274q0 69 -38 110t-85 41q-36 0 -61 -22l-2 2l75 133h-22l-78 -135q-5 -10 0 -15l10 -10q9 -8 17 0q27 27 49 27q30 0 42.5 -31.5t12.5 -101.5q0 -79 -14.5 -112.5t-50.5 -33.5q-60 0 -76 68q-3 15 -12 12q-14 -3 -7 -25q26 -75 99 -75q65 0 103 50t38 118z" />
    <glyph glyph-name="uni00B9" unicode="&#xb9;" horiz-adv-x="407" 
d="M367 369q0 8 -15 8h-63q-8 0 -10.5 12t-2.5 45v754q0 8 -10 8h-82q-14 0 -14 -8q0 -88 -45 -181.5t-82 -138.5q-10 -10 -2 -16q8 -8 16 4q36 45 67 107.5t44 119.5h2v-649q0 -35 -2 -46t-10 -11h-76q-12 0 -12 -8q0 -9 12 -9h270q15 0 15 9z" />
    <glyph glyph-name="ordmasculine" unicode="&#xba;" horiz-adv-x="473" 
d="M422 897q0 84 -17 152.5t-60.5 116.5t-108.5 48q-51 0 -88.5 -27t-58 -74t-29.5 -101.5t-9 -118.5q0 -61 10.5 -116.5t31.5 -102.5t58.5 -75t86.5 -28q68 0 111 50t58 119t15 157zM303 764q-6 -113 -14 -137q-14 -38 -53 -39q-21 0 -33.5 9t-18.5 28.5t-8.5 45.5t-4.5 65
q0 18 -1 28q-6 129 0 258q6 112 12 135q14 40 54 41q21 0 34 -8.5t19 -30.5t8.5 -45.5t4.5 -67.5q1 -16 1 -24q6 -129 0 -258z" />
    <glyph glyph-name="guillemotright" unicode="&#xbb;" 
d="M573 444q0 112 -77 193t-187 113q-9 3 -12 -11q-2 -9 10 -12q62 -18 90 -54t39 -87q10 -44 10 -142q0 -97 -10 -141q-11 -51 -39 -87t-90 -54q-12 -3 -10 -12q3 -14 12 -11q110 32 187 112.5t77 192.5zM317 444q0 112 -77 193t-187 113q-9 3 -12 -11q-2 -9 10 -12
q62 -18 90 -54t39 -87q10 -44 10 -142q0 -97 -10 -141q-11 -51 -39 -87t-90 -54q-12 -3 -10 -12q3 -14 12 -11q110 32 187 112.5t77 192.5z" />
    <glyph glyph-name="onequarter" unicode="&#xbc;" horiz-adv-x="946" 
d="M367 369q0 8 -15 8h-63q-8 0 -10.5 12t-2.5 45v754q0 8 -10 8h-82q-14 0 -14 -8q0 -88 -45 -181.5t-82 -138.5q-10 -10 -2 -16q8 -8 16 4q36 45 67 107.5t44 119.5h2v-649q0 -35 -2 -46t-10 -11h-76q-12 0 -12 -8q0 -9 12 -9h270q15 0 15 9zM836 1292q7 14 -7 19t-22 -11
l-627 -1398q-7 -15 8 -21q14 -6 21 8zM936 80q-7 7 -16 -2q-30 -33 -60 -41q-10 -3 -10 12v395q0 13 -8 13q-9 0 -13 -8q-35 -49 -73 -72q-11 -8 -11 -19v-288q0 -14 -10 -9q-56 27 -90 27q-48 0 -78 -33v2q121 240 159 335q85 214 99 450q0 7 -2.5 9.5t-7.5 0.5
q-20 -7 -53 -14q-35 -7 -62 -7q-8 0 -8 -8q9 -196 -5.5 -327.5t-50.5 -234.5t-116 -263q-10 -18 0 -21q11 -5 15 7q23 47 48 67.5t60 20.5q26 0 90 -29q12 -6 12 -18v-195q0 -13 13 -10q24 4 39 4q19 0 43 -4q5 -1 7 1t2.5 4t0.5 5v176q0 12 12 14q28 5 66 39q13 11 8 21z
" />
    <glyph glyph-name="onehalf" unicode="&#xbd;" horiz-adv-x="1052" 
d="M1012 10v176q0 9 -8 9q-9 0 -9 -9v-41q0 -30 -9.5 -40.5t-35.5 -10.5h-207v2q128 161 183 271.5t55 236.5q0 56 -14 101t-34.5 71.5t-46.5 44.5t-48.5 24.5t-42.5 6.5q-65 0 -105.5 -50t-40.5 -104q0 -39 19.5 -60.5t44.5 -21.5t42 21.5t17 52.5q0 22 -18.5 53.5
t-18.5 51.5q0 15 13 28t38 13q23 0 35.5 -12t22.5 -66.5t10 -159.5q0 -75 -1 -115.5t-4.5 -91t-12.5 -81t-22.5 -68.5t-36.5 -70.5t-53 -69.5t-73 -82q-4 -4 -4 -10q0 -10 6 -10h353q6 0 6 10zM836 1292q7 14 -7 19t-22 -11l-627 -1398q-7 -15 8 -21q14 -6 21 8zM367 369
q0 8 -15 8h-63q-8 0 -10.5 12t-2.5 45v754q0 8 -10 8h-82q-14 0 -14 -8q0 -88 -45 -181.5t-82 -138.5q-10 -10 -2 -16q8 -8 16 4q36 45 67 107.5t44 119.5h2v-649q0 -35 -2 -46t-10 -11h-76q-12 0 -12 -8q0 -9 12 -9h270q15 0 15 9z" />
    <glyph glyph-name="threequarters" unicode="&#xbe;" horiz-adv-x="948" 
d="M373 657q0 70 -16 122.5t-42.5 81t-52 43t-51.5 18.5v2q143 53 143 243q0 107 -50 165.5t-124 58.5q-56 0 -95.5 -44.5t-39.5 -111.5q0 -34 15.5 -54t39.5 -20q18 0 35 14.5t17 47.5q0 23 -18.5 48t-18.5 42q0 24 12 42.5t41 18.5q41 0 54.5 -46t13.5 -167
q0 -120 -10.5 -175.5t-37.5 -55.5h-45q-10 0 -10 -10q0 -11 10 -11h45q14 0 22.5 -5t17 -21t13 -53t5.5 -95q0 -6 1 -93t-1 -93q0 -189 -70 -189q-29 0 -46 21.5t-17 44.5q0 17 18.5 41t18.5 49q0 32 -16 49t-36 17q-28 0 -42.5 -22t-14.5 -56q0 -58 38 -109t105 -51
q59 0 103 43.5t65 113.5t21 156zM838 1292q7 14 -7 19t-22 -11l-627 -1398q-7 -15 8 -21q14 -6 21 8zM938 80q-7 7 -16 -2q-30 -33 -60 -41q-10 -3 -10 12v395q0 13 -8 13q-9 0 -13 -8q-35 -49 -73 -72q-10 -7 -10 -19v-288q0 -14 -11 -9q-56 27 -90 27q-48 0 -78 -33v2
q121 240 159 335q85 214 99 450q0 7 -2.5 9.5t-7.5 0.5q-20 -7 -53 -14q-35 -7 -62 -7q-8 0 -8 -8q9 -196 -5.5 -327.5t-50.5 -234.5t-116 -263q-10 -18 0 -21q11 -5 15 7q23 47 48 67.5t60 20.5q26 0 90 -29q13 -7 13 -18v-195q0 -12 12 -10q24 4 39 4q19 0 43 -4
q7 -1 8.5 2t1.5 8v176q0 12 12 14q28 5 66 39q13 11 8 21z" />
    <glyph glyph-name="questiondown" unicode="&#xbf;" 
d="M473 793q0 41 -24 67.5t-62 26.5t-62 -26.5t-24 -67.5t24 -67t62 -26t62 26t24 67zM37 -176q0 -110 26.5 -195t67.5 -132t83.5 -70t82.5 -23q51 0 91.5 20.5t63 52.5t33.5 65t11 63q0 37 -20 64.5t-60 27.5q-35 0 -54.5 -22.5t-19.5 -55.5q0 -29 26.5 -61.5t26.5 -53.5
q0 -32 -19 -55.5t-50 -23.5q-45 0 -74.5 58t-38.5 159q-19 200 0 399q10 98 33 149.5t67 51.5q40 0 64 -21q-6 -24 -6 -35q0 -41 24 -41q18 0 28.5 13.5t10.5 31.5q0 10 -7 23t-13 16q-15 9 -15 29v287q0 18 -14 18q-12 0 -12 -18v-293q-24 8 -66 8q-67 0 -121 -41t-85 -107
t-47.5 -140t-16.5 -148z" />
    <glyph glyph-name="Agrave" unicode="&#xc0;" horiz-adv-x="716" 
d="M713 10q0 10 -15 10h-12q-19 0 -26.5 14.5t-16.5 67.5l-233 1332q-4 12 -13 12h-96q-14 0 -14 -12l-146 -1022q-15 -106 -28.5 -179.5t-24 -115t-22.5 -63.5t-21 -28t-22 -6h-5q-14 0 -14 -10t14 -10h240q14 0 14 10t-14 10h-31q-61 0 -76 79t13 288l22 162q3 12 11 12
h192q3 0 5 -0.5t3 -2t1.5 -2.5t1.5 -4l1 -3l72 -447q9 -54 6 -68t-22 -14h-39q-15 0 -15 -10t15 -10h280q15 0 15 10zM393 600q2 -5 -1.5 -10.5t-10.5 -5.5h-176q-12 0 -12 12l88 664h6zM350 1487q9 3 2 18l-73 285q-5 18 -13 52t-11.5 48.5t-11 32t-16.5 27.5
q-23 25 -53.5 15.5t-30.5 -44.5q0 -16 7 -37t14 -36t23 -44t22 -41l129 -264q8 -12 12 -12z" />
    <glyph glyph-name="Aacute" unicode="&#xc1;" horiz-adv-x="716" 
d="M713 10q0 10 -15 10h-12q-19 0 -26.5 14.5t-16.5 67.5l-233 1332q-4 12 -13 12h-96q-14 0 -14 -12l-146 -1022q-15 -106 -28.5 -179.5t-24 -115t-22.5 -63.5t-21 -28t-22 -6h-5q-14 0 -14 -10t14 -10h240q14 0 14 10t-14 10h-31q-61 0 -76 79t13 288l22 162q3 12 11 12
h192q3 0 5 -0.5t3 -2t1.5 -2.5t1.5 -4l1 -3l72 -447q9 -54 6 -68t-22 -14h-39q-15 0 -15 -10t15 -10h280q15 0 15 10zM393 600q2 -5 -1.5 -10.5t-10.5 -5.5h-176q-12 0 -12 12l88 664h6zM541 1921q0 35 -30.5 44.5t-53.5 -15.5q-9 -10 -16 -27t-11 -32.5t-11.5 -48
t-12.5 -52.5l-74 -285q-7 -15 2 -18q5 -2 11 11l1 1l129 264q6 12 22 41t23 44t14 36t7 37z" />
    <glyph glyph-name="Acircumflex" unicode="&#xc2;" horiz-adv-x="716" 
d="M713 10q0 10 -15 10h-12q-19 0 -26.5 14.5t-16.5 67.5l-233 1332q-4 12 -13 12h-96q-14 0 -14 -12l-146 -1022q-15 -106 -28.5 -179.5t-24 -115t-22.5 -63.5t-21 -28t-22 -6h-5q-14 0 -14 -10t14 -10h240q14 0 14 10t-14 10h-31q-61 0 -76 79t13 288l22 162q3 12 11 12
h192q3 0 5 -0.5t3 -2t1.5 -2.5t1.5 -4l1 -3l72 -447q9 -54 6 -68t-22 -14h-39q-15 0 -15 -10t15 -10h280q15 0 15 10zM393 600q2 -5 -1.5 -10.5t-10.5 -5.5h-176q-12 0 -12 12l88 664h6zM524 1487q9 3 2 18l-86 342q-7 30 -10.5 41.5t-10.5 31.5t-14 27.5t-18.5 14
t-26.5 6.5q-33 0 -47.5 -25.5t-29.5 -86.5q-1 -6 -2 -9l-86 -342q-7 -15 2 -18q6 -1 12 12l151 350h2l150 -350q8 -12 12 -12z" />
    <glyph glyph-name="Atilde" unicode="&#xc3;" horiz-adv-x="716" 
d="M713 10q0 10 -15 10h-12q-19 0 -26.5 14.5t-16.5 67.5l-233 1332q-4 12 -13 12h-96q-14 0 -14 -12l-146 -1022q-15 -106 -28.5 -179.5t-24 -115t-22.5 -63.5t-21 -28t-22 -6h-5q-14 0 -14 -10t14 -10h240q14 0 14 10t-14 10h-31q-61 0 -76 79t13 288l22 162q3 12 11 12
h192q3 0 5 -0.5t3 -2t1.5 -2.5t1.5 -4l1 -3l72 -447q9 -54 6 -68t-22 -14h-39q-15 0 -15 -10t15 -10h280q15 0 15 10zM393 600q2 -5 -1.5 -10.5t-10.5 -5.5h-176q-12 0 -12 12l88 664h6zM549 1880q0 10 -6 10q-4 1 -5 -1t-1.5 -6.5t-1.5 -6.5q-12 -51 -28 -69.5t-46 -18.5
q-28 0 -89.5 16.5t-92.5 16.5q-85 0 -111 -176q0 -11 6 -11q4 -1 5.5 1t2.5 8l2 6q12 51 28 69.5t46 18.5q28 0 87.5 -16.5t90.5 -16.5q87 0 113 176z" />
    <glyph glyph-name="Adieresis" unicode="&#xc4;" horiz-adv-x="716" 
d="M713 10q0 10 -15 10h-12q-19 0 -26.5 14.5t-16.5 67.5l-233 1332q-4 12 -13 12h-96q-14 0 -14 -12l-146 -1022q-15 -106 -28.5 -179.5t-24 -115t-22.5 -63.5t-21 -28t-22 -6h-5q-14 0 -14 -10t14 -10h240q14 0 14 10t-14 10h-31q-61 0 -76 79t13 288l22 162q3 12 11 12
h192q3 0 5 -0.5t3 -2t1.5 -2.5t1.5 -4l1 -3l72 -447q9 -54 6 -68t-22 -14h-39q-15 0 -15 -10t15 -10h280q15 0 15 10zM393 600q2 -5 -1.5 -10.5t-10.5 -5.5h-176q-12 0 -12 12l88 664h6zM575 1737q0 38 -24 63t-59 25q-36 0 -61 -25t-25 -63t25 -62t61 -24t59.5 24t23.5 62z
M315 1737q0 38 -24 63t-60 25t-61 -25t-25 -63t25 -62t61 -24t60 24t24 62z" />
    <glyph glyph-name="Aring" unicode="&#xc5;" horiz-adv-x="716" 
d="M713 10q0 10 -15 10h-12q-19 0 -26.5 14.5t-16.5 67.5l-233 1332q-4 12 -13 12h-96q-14 0 -14 -12l-146 -1022q-15 -106 -28.5 -179.5t-24 -115t-22.5 -63.5t-21 -28t-22 -6h-5q-14 0 -14 -10t14 -10h240q14 0 14 10t-14 10h-31q-61 0 -76 79t13 288l22 162q3 12 11 12
h192q3 0 5 -0.5t3 -2t1.5 -2.5t1.5 -4l1 -3l72 -447q9 -54 6 -68t-22 -14h-39q-15 0 -15 -10t15 -10h280q15 0 15 10zM393 600q2 -5 -1.5 -10.5t-10.5 -5.5h-176q-12 0 -12 12l88 664h6zM498 1735q0 89 -41.5 150t-108.5 61q-70 0 -109.5 -61t-39.5 -152q0 -88 42 -148.5
t109 -60.5q70 0 109 60t39 151zM416 1651q-2 -27 -4.5 -42t-8.5 -34t-19.5 -28t-33.5 -9q-37 0 -51 30.5t-18 82.5q-6 83 0 166q3 36 6.5 56t18.5 39t42 19q26 0 41 -18t20 -39t7 -55q6 -84 0 -168z" />
    <glyph glyph-name="AE" unicode="&#xc6;" horiz-adv-x="1083" 
d="M1022 14v432q0 15 -12 15q-11 0 -11 -15v-34q0 -33 -3.5 -71t-20 -98t-43 -106t-79.5 -80t-124 -34h-33q-14 0 -14 8v702q0 10 16 10h7q48 0 76 -69t28 -148v-28q0 -15 12 -15q10 0 10 15v510q0 14 -10 14q-4 0 -6 -0.5t-4 -3.5t-2 -10v-29q0 -79 -28 -147t-76 -68h-9
q-14 0 -14 8v641q0 10 16 10h35q61 0 104.5 -38.5t64 -101t28.5 -119.5t8 -115v-37q0 -15 12 -15q13 0 13 15v420q0 14 -13 14h-567q-14 0 -14 -10q0 -11 14 -11h61q56 0 29 -90l-272 -944q-30 -107 -54.5 -178.5t-40.5 -109.5t-32 -57t-25.5 -22.5t-25.5 -3.5h-5
q-14 0 -14 -10t14 -10h248q15 0 15 10t-15 10h-28q-40 0 -55 35.5t-5.5 117.5t47.5 216l97 340q3 12 12 12h170q12 0 12 -12v-635q0 -74 -18 -74h-52q-14 0 -14 -10t14 -10h564q12 0 12 14zM516 780q0 -16 -12 -16h-158q-16 0 -12 12l178 627h4v-623z" />
    <glyph glyph-name="Ccedilla" unicode="&#xc7;" horiz-adv-x="696" 
d="M635 14v475q0 17 -12 17q-13 0 -13 -17v-28q0 -214 -50.5 -339.5t-135.5 -125.5q-30 0 -53 11t-39 27t-28 48.5t-18.5 61.5t-11.5 80t-7 90.5t-5 105.5q-10 257 0 600q2 54 3.5 88t4.5 80t7.5 74.5t11 62t16.5 53.5t23 38t30 26t39 8q30 0 60.5 -32t54.5 -88t39.5 -139
t15.5 -177v-17q0 -16 13 -16q12 0 12 16v435q0 20 -12 20q-13 0 -13 -20v-13q0 -25 -30 -2q-72 53 -134 53q-90 0 -157.5 -58t-108 -162.5t-60.5 -240.5t-20 -302q0 -121 15.5 -234.5t49 -222.5t96.5 -182t149 -88q13 -3 6 -15l-64 -110q-5 -10 0 -15l10 -10q9 -8 17 0
q27 27 49 27q30 0 42.5 -31.5t12.5 -101.5q0 -79 -14.5 -112.5t-50.5 -33.5q-60 0 -76 68q-3 15 -12 12q-13 -3 -6 -25q26 -75 98 -75q65 0 103 50t38 118q0 69 -38 110t-85 41q-36 0 -61 -22l-2 2l61 106q7 12 17 12q22 0 42.5 3.5t41.5 12t32 13.5t31 15.5t21 11.5
q1 0 6 3.5t8 4.5t7.5 1.5t6.5 -3t2 -10.5v-13q0 -20 13 -20q12 0 12 20z" />
    <glyph glyph-name="Egrave" unicode="&#xc8;" horiz-adv-x="696" 
d="M635 14v432q0 15 -12 15q-11 0 -11 -15v-34q0 -33 -3.5 -71t-20 -98t-43 -106t-79.5 -80t-124 -34h-33q-14 0 -14 8v702q0 10 16 10h6q48 0 76.5 -69t28.5 -148v-28q0 -15 12 -15q10 0 10 15v510q0 14 -10 14q-4 0 -6 -0.5t-4 -3.5t-2 -10v-29q0 -49 -11 -96.5t-36 -83
t-58 -35.5h-8q-14 0 -14 8v641q0 10 16 10h35q61 0 104.5 -38.5t64 -101t28.5 -119.5t8 -115v-37q0 -15 12 -15t12 15v420q0 14 -12 14h-504q-14 0 -14 -10q0 -11 14 -11h52q18 0 18 -73v-1258q0 -74 -18 -74h-52q-14 0 -14 -10t14 -10h564q12 0 12 14zM369 1487q9 3 2 18
l-74 285q-5 20 -12.5 52.5t-11.5 48t-11 32.5t-16 27q-23 25 -53.5 15.5t-30.5 -44.5q0 -16 7 -37.5t13.5 -35t23 -44.5t21.5 -41l129 -264q7 -14 13 -12z" />
    <glyph glyph-name="Eacute" unicode="&#xc9;" horiz-adv-x="696" 
d="M635 14v432q0 15 -12 15q-11 0 -11 -15v-34q0 -33 -3.5 -71t-20 -98t-43 -106t-79.5 -80t-124 -34h-33q-14 0 -14 8v702q0 10 16 10h6q48 0 76.5 -69t28.5 -148v-28q0 -15 12 -15q10 0 10 15v510q0 14 -10 14q-4 0 -6 -0.5t-4 -3.5t-2 -10v-29q0 -49 -11 -96.5t-36 -83
t-58 -35.5h-8q-14 0 -14 8v641q0 10 16 10h35q61 0 104.5 -38.5t64 -101t28.5 -119.5t8 -115v-37q0 -15 12 -15t12 15v420q0 14 -12 14h-504q-14 0 -14 -10q0 -11 14 -11h52q18 0 18 -73v-1258q0 -74 -18 -74h-52q-14 0 -14 -10t14 -10h564q12 0 12 14zM535 1921
q0 35 -30.5 44.5t-53.5 -15.5q-9 -10 -16.5 -27.5t-11 -32t-11.5 -48.5t-13 -52l-73 -285q-7 -15 2 -18q5 -2 11 11l1 1l129 264q6 12 22 41t23 44t14 36t7 37z" />
    <glyph glyph-name="Ecircumflex" unicode="&#xca;" horiz-adv-x="696" 
d="M635 14v432q0 15 -12 15q-11 0 -11 -15v-34q0 -33 -3.5 -71t-20 -98t-43 -106t-79.5 -80t-124 -34h-33q-14 0 -14 8v702q0 10 16 10h6q48 0 76.5 -69t28.5 -148v-28q0 -15 12 -15q10 0 10 15v510q0 14 -10 14q-4 0 -6 -0.5t-4 -3.5t-2 -10v-29q0 -49 -11 -96.5t-36 -83
t-58 -35.5h-8q-14 0 -14 8v641q0 10 16 10h35q61 0 104.5 -38.5t64 -101t28.5 -119.5t8 -115v-37q0 -15 12 -15t12 15v420q0 14 -12 14h-504q-14 0 -14 -10q0 -11 14 -11h52q18 0 18 -73v-1258q0 -74 -18 -74h-52q-14 0 -14 -10t14 -10h564q12 0 12 14zM504 1487q9 3 2 18
l-86 342q-7 30 -10.5 41.5t-10.5 31.5t-14 27.5t-18.5 14t-26.5 6.5t-26.5 -6.5t-18.5 -14t-14 -27.5t-10.5 -31.5t-10.5 -41.5l-86 -342q-7 -15 2 -18q6 -1 12 12l152 350h2l150 -350q8 -12 12 -12z" />
    <glyph glyph-name="Edieresis" unicode="&#xcb;" horiz-adv-x="696" 
d="M635 14v432q0 15 -12 15q-11 0 -11 -15v-34q0 -33 -3.5 -71t-20 -98t-43 -106t-79.5 -80t-124 -34h-33q-14 0 -14 8v702q0 10 16 10h6q48 0 76.5 -69t28.5 -148v-28q0 -15 12 -15q10 0 10 15v510q0 14 -10 14q-4 0 -6 -0.5t-4 -3.5t-2 -10v-29q0 -49 -11 -96.5t-36 -83
t-58 -35.5h-8q-14 0 -14 8v641q0 10 16 10h35q61 0 104.5 -38.5t64 -101t28.5 -119.5t8 -115v-37q0 -15 12 -15t12 15v420q0 14 -12 14h-504q-14 0 -14 -10q0 -11 14 -11h52q18 0 18 -73v-1258q0 -74 -18 -74h-52q-14 0 -14 -10t14 -10h564q12 0 12 14zM551 1716
q0 38 -24 63t-60 25t-61 -25t-25 -63t25 -62t61 -24t60 24t24 62zM291 1716q0 38 -24 63t-60 25t-61 -25t-25 -63t25 -62t61 -24t60 24t24 62z" />
    <glyph glyph-name="Igrave" unicode="&#xcc;" horiz-adv-x="423" 
d="M379 10q0 10 -14 10h-52q-18 0 -18 74v1258q0 73 18 73h52q14 0 14 11q0 10 -14 10h-306q-14 0 -14 -10q0 -11 14 -11h52q18 0 18 -73v-1258q0 -74 -18 -74h-52q-14 0 -14 -10t14 -10h306q14 0 14 10zM217 1487q9 3 2 18l-74 285q-5 20 -12.5 52.5t-11.5 48t-11 32.5
t-16 27q-23 25 -53.5 15.5t-30.5 -44.5q0 -16 7 -37t14 -36t23 -44t22 -41l129 -264q8 -12 12 -12z" />
    <glyph glyph-name="Iacute" unicode="&#xcd;" horiz-adv-x="423" 
d="M379 10q0 10 -14 10h-52q-18 0 -18 74v1258q0 73 18 73h52q14 0 14 11q0 10 -14 10h-306q-14 0 -14 -10q0 -11 14 -11h52q18 0 18 -73v-1258q0 -74 -18 -74h-52q-14 0 -14 -10t14 -10h306q14 0 14 10zM401 1921q0 35 -30.5 44.5t-53.5 -15.5q-9 -10 -16 -27t-11 -32.5
t-11.5 -48t-12.5 -52.5l-73 -285q-7 -15 2 -18q6 -1 12 12l129 264q5 10 21.5 41t23 44.5t13.5 35t7 37.5z" />
    <glyph glyph-name="Icircumflex" unicode="&#xce;" horiz-adv-x="423" 
d="M379 10q0 10 -14 10h-52q-18 0 -18 74v1258q0 73 18 73h52q14 0 14 11q0 10 -14 10h-306q-14 0 -14 -10q0 -11 14 -11h52q18 0 18 -73v-1258q0 -74 -18 -74h-52q-14 0 -14 -10t14 -10h306q14 0 14 10zM375 1487q9 3 2 18l-86 342q-7 30 -10.5 41.5t-10.5 31.5t-14 27.5
t-18.5 14t-26.5 6.5t-26.5 -6.5t-18.5 -14t-14 -27.5t-10.5 -31.5t-10.5 -41.5l-86 -342q-7 -15 2 -18q6 -1 12 12l152 350h2l149 -350q7 -14 13 -12z" />
    <glyph glyph-name="Idieresis" unicode="&#xcf;" horiz-adv-x="423" 
d="M379 10q0 10 -14 10h-52q-18 0 -18 74v1258q0 73 18 73h52q14 0 14 11q0 10 -14 10h-306q-14 0 -14 -10q0 -11 14 -11h52q18 0 18 -73v-1258q0 -74 -18 -74h-52q-14 0 -14 -10t14 -10h306q14 0 14 10zM432 1798q0 38 -24 63t-60 25t-61 -25t-25 -63t25 -62t61 -24t60 24
t24 62zM172 1798q0 38 -24 63t-60 25t-61 -25t-25 -63t25 -62t61 -24t60 24t24 62z" />
    <glyph glyph-name="Eth" unicode="&#xd0;" horiz-adv-x="806" 
d="M750 739q0 137 -19.5 258.5t-60 224.5t-112 163.5t-165.5 60.5h-334q-14 0 -14 -10q0 -11 14 -11h52q18 0 18 -73v-568q0 -10 -18 -10h-62q-20 0 -20 -14q0 -12 20 -12h64q16 0 16 -11v-643q0 -74 -18 -74h-52q-14 0 -14 -10t14 -10h334q93 0 162.5 56t111.5 157.5
t62.5 233t20.5 292.5zM545 436q-2 -57 -4 -96t-6.5 -86t-10.5 -78t-16.5 -62.5t-24 -49.5t-33 -29.5t-44.5 -11.5h-97q-14 0 -14 8v706q0 11 16 11h88q21 0 21 14q0 12 -21 12h-88q-16 0 -16 10v629q0 10 16 10h86q29 0 51.5 -11.5t38 -37.5t25.5 -57.5t16.5 -81.5t10 -98.5
t6.5 -118.5q10 -249 0 -582z" />
    <glyph glyph-name="Ntilde" unicode="&#xd1;" horiz-adv-x="776" 
d="M731 1436q0 10 -14 10h-238q-14 0 -14 -10q0 -11 14 -11h41q38 0 59.5 -40t32.5 -144.5t11 -292.5v-577h-5l-319 1063q-4 12 -20 12h-220q-14 0 -14 -10q0 -11 14 -11h52q18 0 18 -71v-871q0 -135 -3 -223.5t-7.5 -137t-14 -71.5t-17.5 -27t-24 -4h-4q-14 0 -14 -10
t14 -10h238q14 0 14 10t-14 10h-41q-38 0 -59 40.5t-32 145t-11 292.5v835h2l413 -1341q7 -17 23 -17h35q20 0 20 21v967q0 135 3 223.5t7.5 136.5t14.5 71t17.5 27t23.5 4h4q14 0 14 11zM592 1880q0 10 -6 10q-4 1 -5 -1t-1.5 -6.5t-1.5 -6.5q-12 -51 -28 -69.5t-46 -18.5
q-28 0 -89.5 16.5t-92.5 16.5q-85 0 -111 -176q0 -11 6 -11q4 -1 5.5 1t3.5 8l1 6q12 51 28 69.5t46 18.5q28 0 87.5 -16.5t90.5 -16.5q87 0 113 176z" />
    <glyph glyph-name="Ograve" unicode="&#xd2;" horiz-adv-x="788" 
d="M731 729q0 148 -19.5 278t-58.5 235.5t-105 166.5t-151 61q-88 0 -155.5 -61.5t-106.5 -168.5t-58.5 -238.5t-19.5 -284.5q0 -148 19.5 -278t58.5 -235.5t105 -167t151 -61.5q88 0 155.5 61.5t106.5 169t58.5 239t19.5 284.5zM526 426q0 -13 -1 -52t-1.5 -61t-2.5 -61.5
t-6.5 -64.5t-10.5 -58t-16 -54t-23.5 -40.5t-32 -29t-41.5 -9.5q-118 0 -128 395q-1 17 -1 25q-9 302 0 604q0 13 1 52t1.5 61t2.5 61.5t6.5 64.5t10.5 58t16 54t23.5 40.5t32 29t41.5 9.5q118 0 128 -392q1 -16 1 -24q9 -304 0 -608zM399 1507q4 1 4 8t-2 11l-73 284
q-5 18 -13 52t-11.5 48.5t-11 32t-16.5 27.5q-23 25 -53 16t-30 -44q0 -16 7 -37.5t13.5 -35t23 -44.5t21.5 -41l129 -264l1 -3q2 -3 2.5 -4t2 -3t3 -3t3.5 0z" />
    <glyph glyph-name="Oacute" unicode="&#xd3;" horiz-adv-x="788" 
d="M731 729q0 148 -19.5 278t-58.5 235.5t-105 166.5t-151 61q-88 0 -155.5 -61.5t-106.5 -168.5t-58.5 -238.5t-19.5 -284.5q0 -148 19.5 -278t58.5 -235.5t105 -167t151 -61.5q88 0 155.5 61.5t106.5 169t58.5 239t19.5 284.5zM526 426q0 -13 -1 -52t-1.5 -61t-2.5 -61.5
t-6.5 -64.5t-10.5 -58t-16 -54t-23.5 -40.5t-32 -29t-41.5 -9.5q-118 0 -128 395q-1 17 -1 25q-9 302 0 604q0 13 1 52t1.5 61t2.5 61.5t6.5 64.5t10.5 58t16 54t23.5 40.5t32 29t41.5 9.5q118 0 128 -392q1 -16 1 -24q9 -304 0 -608zM586 1942q0 35 -30.5 44t-53.5 -16
q-9 -10 -16 -27t-11 -32.5t-11.5 -48t-12.5 -52.5l-74 -284q-2 -4 -2 -11t4 -8q5 -2 11 11l1 2l129 264q6 12 22 41t23 44t14 36t7 37z" />
    <glyph glyph-name="Ocircumflex" unicode="&#xd4;" horiz-adv-x="788" 
d="M731 729q0 148 -19.5 278t-58.5 235.5t-105 166.5t-151 61q-88 0 -155.5 -61.5t-106.5 -168.5t-58.5 -238.5t-19.5 -284.5q0 -148 19.5 -278t58.5 -235.5t105 -167t151 -61.5q88 0 155.5 61.5t106.5 169t58.5 239t19.5 284.5zM526 426q0 -13 -1 -52t-1.5 -61t-2.5 -61.5
t-6.5 -64.5t-10.5 -58t-16 -54t-23.5 -40.5t-32 -29t-41.5 -9.5q-118 0 -128 395q-1 17 -1 25q-9 302 0 604q0 13 1 52t1.5 61t2.5 61.5t6.5 64.5t10.5 58t16 54t23.5 40.5t32 29t41.5 9.5q118 0 128 -392q1 -16 1 -24q9 -304 0 -608zM553 1507q4 1 4 8t-2 11l-86 342
q-7 30 -10.5 41.5t-10.5 31.5t-14 27.5t-18.5 14t-26.5 6.5t-26.5 -6.5t-18.5 -14t-14 -27.5t-10.5 -31.5t-10.5 -41.5l-86 -342q-2 -4 -2 -11t4 -8q2 -1 4 0t4 4.5t2.5 4.5t2.5 4l151 350h2l150 -350l1 -3q2 -3 2.5 -4t2 -3t3 -3t3.5 0z" />
    <glyph glyph-name="Otilde" unicode="&#xd5;" horiz-adv-x="788" 
d="M731 729q0 148 -19.5 278t-58.5 235.5t-105 166.5t-151 61q-88 0 -155.5 -61.5t-106.5 -168.5t-58.5 -238.5t-19.5 -284.5q0 -148 19.5 -278t58.5 -235.5t105 -167t151 -61.5q88 0 155.5 61.5t106.5 169t58.5 239t19.5 284.5zM526 426q0 -13 -1 -52t-1.5 -61t-2.5 -61.5
t-6.5 -64.5t-10.5 -58t-16 -54t-23.5 -40.5t-32 -29t-41.5 -9.5q-118 0 -128 395q-1 17 -1 25q-9 302 0 604q0 13 1 52t1.5 61t2.5 61.5t6.5 64.5t10.5 58t16 54t23.5 40.5t32 29t41.5 9.5q118 0 128 -392q1 -16 1 -24q9 -304 0 -608zM590 1880q0 10 -6 10q-4 1 -5.5 -1
t-2.5 -7t-1 -6q-12 -51 -27.5 -69.5t-45.5 -18.5q-28 0 -90 16.5t-93 16.5q-84 0 -110 -176q0 -11 6 -11q4 -1 5.5 1t3.5 8l1 6q12 51 28 69.5t46 18.5q28 0 87.5 -16.5t90.5 -16.5q87 0 113 176z" />
    <glyph glyph-name="Odieresis" unicode="&#xd6;" horiz-adv-x="788" 
d="M731 729q0 148 -19.5 278t-58.5 235.5t-105 166.5t-151 61q-88 0 -155.5 -61.5t-106.5 -168.5t-58.5 -238.5t-19.5 -284.5q0 -148 19.5 -278t58.5 -235.5t105 -167t151 -61.5q88 0 155.5 61.5t106.5 169t58.5 239t19.5 284.5zM526 426q0 -13 -1 -52t-1.5 -61t-2.5 -61.5
t-6.5 -64.5t-10.5 -58t-16 -54t-23.5 -40.5t-32 -29t-41.5 -9.5q-118 0 -128 395q-1 17 -1 25q-9 302 0 604q0 13 1 52t1.5 61t2.5 61.5t6.5 64.5t10.5 58t16 54t23.5 40.5t32 29t41.5 9.5q118 0 128 -392q1 -16 1 -24q9 -304 0 -608zM606 1737q0 38 -24 63t-60 25t-61 -25
t-25 -63t25 -62t61 -24t60 24t24 62zM346 1737q0 38 -24 63t-60 25t-61 -25t-25 -63t25 -62t61 -24t60 24t24 62z" />
    <glyph glyph-name="multiply" unicode="&#xd7;" horiz-adv-x="798" 
d="M684 301q14 13 -6 33l-250 250l250 250q19 19 4 34q-14 14 -33 -6l-252 -250q1 0 -61 62.5t-124 125.5l-62 62q-20 20 -35 4q-15 -14 6 -35q16 -16 42 -41.5t80.5 -79.5t90.5 -90t35 -36l-248 -248q-19 -20 -4 -35t33 4l249 250l250 -250q19 -19 35 -4z" />
    <glyph glyph-name="Oslash" unicode="&#xd8;" horiz-adv-x="788" 
d="M733 729q0 351 -100 555l94 244q11 25 -8 31q-15 5 -25 -17l-84 -217q-85 145 -217 145q-88 0 -154.5 -61.5t-104.5 -169t-56.5 -238t-18.5 -284.5q0 -356 103 -563l-94 -248q-10 -22 10 -29q8 -3 12.5 1t9.5 16l84 221q86 -140 215 -140q88 0 154.5 61.5t104.5 169
t56.5 238.5t18.5 285zM526 1102l-262 -682q-9 300 0 600q0 13 1 52t1.5 61t2.5 61.5t6.5 64.5t10.5 58t16 54t23.5 40.5t32 29t41.5 9.5q106 0 123 -289q4 -40 4 -59zM528 426q0 -13 -1 -52t-1.5 -61t-2.5 -61.5t-6.5 -64.5t-10.5 -58t-16 -54t-23.5 -40.5t-32 -29
t-41.5 -9.5q-106 0 -123 285q-2 16 -2 49l260 682q9 -293 0 -586z" />
    <glyph glyph-name="Ugrave" unicode="&#xd9;" horiz-adv-x="751" 
d="M707 1436q0 10 -15 10h-219q-14 0 -14 -10q0 -11 14 -11h33q28 0 45 -20.5t28 -76.5t15 -145t4 -235v-659q0 -142 -48.5 -213.5t-127.5 -71.5q-127 0 -127 223v1125q0 73 18 73h52q14 0 14 11q0 10 -14 10h-306q-14 0 -14 -10q0 -11 14 -11h52q18 0 18 -73v-1053
q0 -130 74.5 -227t193.5 -97q117 0 171.5 88.5t54.5 223.5v676q0 135 3 223.5t7 136.5t14 71t17.5 27t23.5 4h4q15 0 15 11zM424 1487q9 3 2 18l-74 285q-5 20 -12.5 52.5t-11.5 48t-11 32.5t-16 27q-23 25 -53.5 15.5t-30.5 -44.5q0 -16 7 -37t14 -36t23 -44t22 -41
l129 -264q8 -12 12 -12z" />
    <glyph glyph-name="Uacute" unicode="&#xda;" horiz-adv-x="751" 
d="M707 1436q0 10 -15 10h-219q-14 0 -14 -10q0 -11 14 -11h33q28 0 45 -20.5t28 -76.5t15 -145t4 -235v-659q0 -142 -48.5 -213.5t-127.5 -71.5q-127 0 -127 223v1125q0 73 18 73h52q14 0 14 11q0 10 -14 10h-306q-14 0 -14 -10q0 -11 14 -11h52q18 0 18 -73v-1053
q0 -130 74.5 -227t193.5 -97q117 0 171.5 88.5t54.5 223.5v676q0 135 3 223.5t7 136.5t14 71t17.5 27t23.5 4h4q15 0 15 11zM606 1921q0 35 -30.5 44.5t-53.5 -15.5q-9 -10 -16 -27t-11 -32.5t-11.5 -48t-12.5 -52.5l-74 -285q-7 -15 2 -18q6 -2 13 12l129 264q5 10 21.5 41
t23 44.5t13.5 35t7 37.5z" />
    <glyph glyph-name="Ucircumflex" unicode="&#xdb;" horiz-adv-x="751" 
d="M707 1436q0 10 -15 10h-219q-14 0 -14 -10q0 -11 14 -11h33q28 0 45 -20.5t28 -76.5t15 -145t4 -235v-659q0 -142 -48.5 -213.5t-127.5 -71.5q-127 0 -127 223v1125q0 73 18 73h52q14 0 14 11q0 10 -14 10h-306q-14 0 -14 -10q0 -11 14 -11h52q18 0 18 -73v-1053
q0 -130 74.5 -227t193.5 -97q117 0 171.5 88.5t54.5 223.5v676q0 135 3 223.5t7 136.5t14 71t17.5 27t23.5 4h4q15 0 15 11zM573 1487q9 3 2 18l-86 342q-20 80 -35 99q-17 22 -44 22q-15 0 -26.5 -6.5t-18.5 -14t-14 -27.5t-10.5 -31.5t-10.5 -41.5l-86 -342q-7 -15 2 -18
q5 -2 11 11l1 1l152 350h2l149 -350q8 -12 12 -12z" />
    <glyph glyph-name="Udieresis" unicode="&#xdc;" horiz-adv-x="751" 
d="M707 1436q0 10 -15 10h-219q-14 0 -14 -10q0 -11 14 -11h33q28 0 45 -20.5t28 -76.5t15 -145t4 -235v-659q0 -142 -48.5 -213.5t-127.5 -71.5q-127 0 -127 223v1125q0 73 18 73h52q14 0 14 11q0 10 -14 10h-306q-14 0 -14 -10q0 -11 14 -11h52q18 0 18 -73v-1053
q0 -130 74.5 -227t193.5 -97q117 0 171.5 88.5t54.5 223.5v676q0 135 3 223.5t7 136.5t14 71t17.5 27t23.5 4h4q15 0 15 11zM606 1737q0 38 -24 63t-60 25t-61 -25t-25 -63t25 -62t61 -24t60 24t24 62zM346 1737q0 38 -24 63t-60 25t-61 -25t-25 -63t25 -62t61 -24t60 24
t24 62z" />
    <glyph glyph-name="Yacute" unicode="&#xdd;" horiz-adv-x="720" 
d="M717 1436q0 10 -15 10h-221q-14 0 -14 -10q0 -11 14 -11h43q86 0 37 -165q-14 -47 -38.5 -125t-56.5 -178l-48 -150l-166 536q-14 51 -10 66.5t24 15.5h37q14 0 14 11q0 10 -14 10h-285q-14 0 -14 -10q0 -11 14 -11h2q21 0 33 -16t27 -66l170 -550q8 -24 8 -54v-645
q0 -74 -18 -74h-52q-14 0 -14 -10t14 -10h306q14 0 14 10t-14 10h-52q-18 0 -18 74v645q0 31 10 60q17 50 71 206t73 212q47 138 64 167q24 41 56 41h4q15 0 15 11zM592 1921q0 35 -30.5 44.5t-53.5 -15.5q-9 -10 -16 -27t-11 -32.5t-11.5 -48t-12.5 -52.5l-74 -285
q-7 -15 2 -18q5 -2 11 11l1 1l129 264q6 12 22 41t23 44t14 36t7 37z" />
    <glyph glyph-name="Thorn" unicode="&#xde;" horiz-adv-x="739" 
d="M694 905q0 193 -85.5 297.5t-215.5 104.5h-80q-18 0 -18 12v33q0 73 18 73h52q14 0 14 11q0 10 -14 10h-306q-14 0 -14 -10q0 -11 14 -11h52q18 0 18 -73v-1258q0 -74 -18 -74h-52q-14 0 -14 -10t14 -10h306q14 0 14 10t-14 10h-52q-18 0 -18 74v395q0 13 18 13h90
q125 0 208 110.5t83 292.5zM502 905q0 -71 -1 -115.5t-5.5 -93.5t-12.5 -76.5t-22 -52.5t-35.5 -35t-50.5 -10h-64q-16 0 -16 13v737q0 12 18 12h62q70 0 98.5 -90.5t28.5 -288.5z" />
    <glyph glyph-name="germandbls" unicode="&#xdf;" horiz-adv-x="712" 
d="M709 215q0 66 -22 122.5t-55 94t-71.5 77t-71.5 72.5t-55 80t-22 99q0 37 19.5 76.5t47 76t55 76.5t47 93t19.5 110q0 132 -64.5 205t-160.5 73q-105 0 -191 -86t-86 -213v-1071q0 -46 -3.5 -64t-14.5 -18h-41q-14 0 -14 -8q0 -10 14 -10h182q15 0 15 10v1284
q0 75 35.5 116.5t101.5 41.5q83 0 137.5 -62t54.5 -196q0 -68 -23.5 -130t-57.5 -109.5t-67.5 -93t-57 -101t-23.5 -113.5q0 -65 22.5 -120t56 -92t72 -75.5t71.5 -70.5t55 -77.5t22 -96.5q0 -45 -31 -83t-90 -38q-70 0 -70 43q0 16 13.5 39.5t13.5 50.5q0 34 -22.5 55
t-53.5 21q-33 0 -53 -22t-20 -58q0 -72 58 -110t134 -38q79 0 137 64.5t58 175.5z" />
    <glyph glyph-name="agrave" unicode="&#xe0;" horiz-adv-x="526" 
d="M526 102q-10 0 -10 -18q0 -32 -13 -54t-34 -22q-23 0 -23 47v570q0 126 -62.5 194t-141.5 68q-76 0 -127.5 -45.5t-51.5 -104.5q0 -42 22.5 -63t53.5 -21t51.5 21.5t20.5 60.5q0 26 -20.5 54.5t-20.5 44.5q0 13 14 23.5t47 10.5q78 0 78 -73v-179q0 -8 -0.5 -13.5t-2 -11
t-2 -9t-4 -8.5t-5 -7t-7 -7t-7.5 -7t-10 -8.5t-11 -9.5q-24 -21 -68.5 -51.5t-62.5 -45.5q-96 -80 -96 -241q0 -88 45.5 -155t120.5 -67q44 0 77 22.5t41 70.5h2q0 -37 28 -65t77 -28q53 0 82 28.5t29 82.5q0 16 -9 16zM309 141q0 -71 -21.5 -106t-51.5 -35q-48 0 -52 78
q-4 126 0 244q3 86 32 137t93 94v-412zM252 989q4 1 4 8t-2 11l-74 284q-5 20 -12.5 52.5t-11.5 48t-11 32.5t-16 27q-23 25 -53.5 15.5t-30.5 -44.5q0 -16 7 -37t14.5 -36t23 -43.5t21.5 -40.5l129 -265q8 -12 12 -12z" />
    <glyph glyph-name="aacute" unicode="&#xe1;" horiz-adv-x="526" 
d="M526 102q-10 0 -10 -18q0 -32 -13 -54t-34 -22q-23 0 -23 47v570q0 126 -62.5 194t-141.5 68q-76 0 -127.5 -45.5t-51.5 -104.5q0 -42 22.5 -63t53.5 -21t51.5 21.5t20.5 60.5q0 26 -20.5 54.5t-20.5 44.5q0 13 14 23.5t47 10.5q78 0 78 -73v-179q0 -8 -0.5 -13.5t-2 -11
t-2 -9t-4 -8.5t-5 -7t-7 -7t-7.5 -7t-10 -8.5t-11 -9.5q-24 -21 -68.5 -51.5t-62.5 -45.5q-96 -80 -96 -241q0 -88 45.5 -155t120.5 -67q44 0 77 22.5t41 70.5h2q0 -37 28 -65t77 -28q53 0 82 28.5t29 82.5q0 16 -9 16zM309 141q0 -71 -21.5 -106t-51.5 -35q-48 0 -52 78
q-4 126 0 244q3 86 32 137t93 94v-412zM436 1423q0 35 -30.5 44.5t-53.5 -15.5q-9 -10 -16 -27t-11 -32.5t-11.5 -48t-12.5 -52.5l-74 -284q-2 -4 -2 -11t4 -8q6 -2 13 12l129 265q5 11 21.5 41t23 44t13.5 35t7 37z" />
    <glyph glyph-name="acircumflex" unicode="&#xe2;" horiz-adv-x="526" 
d="M526 102q-10 0 -10 -18q0 -32 -13 -54t-34 -22q-23 0 -23 47v570q0 126 -62.5 194t-141.5 68q-76 0 -127.5 -45.5t-51.5 -104.5q0 -42 22.5 -63t53.5 -21t51.5 21.5t20.5 60.5q0 26 -20.5 54.5t-20.5 44.5q0 13 14 23.5t47 10.5q78 0 78 -73v-179q0 -8 -0.5 -13.5t-2 -11
t-2 -9t-4 -8.5t-5 -7t-7 -7t-7.5 -7t-10 -8.5t-11 -9.5q-24 -21 -68.5 -51.5t-62.5 -45.5q-96 -80 -96 -241q0 -88 45.5 -155t120.5 -67q44 0 77 22.5t41 70.5h2q0 -37 28 -65t77 -28q53 0 82 28.5t29 82.5q0 16 -9 16zM309 141q0 -71 -21.5 -106t-51.5 -35q-48 0 -52 78
q-4 126 0 244q3 86 32 137t93 94v-412zM414 989q4 1 4 8t-2 11l-86 342q-7 29 -10.5 41t-10.5 31.5t-14 27t-18.5 14t-26.5 6.5t-26.5 -6.5t-18.5 -14t-14 -27t-10.5 -31.5t-10.5 -41l-86 -342q-2 -4 -2 -11t4 -8q5 -2 11 11l1 1l152 351h2l149 -351q7 -14 13 -12z" />
    <glyph glyph-name="atilde" unicode="&#xe3;" horiz-adv-x="526" 
d="M526 102q-10 0 -10 -18q0 -32 -13 -54t-34 -22q-23 0 -23 47v570q0 126 -62.5 194t-141.5 68q-76 0 -127.5 -45.5t-51.5 -104.5q0 -42 22.5 -63t53.5 -21t51.5 21.5t20.5 60.5q0 26 -20.5 54.5t-20.5 44.5q0 13 14 23.5t47 10.5q78 0 78 -73v-179q0 -8 -0.5 -13.5t-2 -11
t-2 -9t-4 -8.5t-5 -7t-7 -7t-7.5 -7t-10 -8.5t-11 -9.5q-24 -21 -68.5 -51.5t-62.5 -45.5q-96 -80 -96 -241q0 -88 45.5 -155t120.5 -67q44 0 77 22.5t41 70.5h2q0 -37 28 -65t77 -28q53 0 82 28.5t29 82.5q0 16 -9 16zM309 141q0 -71 -21.5 -106t-51.5 -35q-48 0 -52 78
q-4 126 0 244q3 86 32 137t93 94v-412zM453 1464q0 11 -7 11q-4 1 -5 -1t-1.5 -7t-1.5 -7q-12 -51 -27.5 -69.5t-45.5 -18.5q-28 0 -90 16.5t-93 16.5q-84 0 -110 -176q0 -10 6 -10q3 -1 5 0.5t2.5 3.5t1.5 5.5t1 4.5q12 51 28 69.5t46 18.5q28 0 87.5 -16.5t90.5 -16.5
q87 0 113 176z" />
    <glyph glyph-name="adieresis" unicode="&#xe4;" horiz-adv-x="526" 
d="M526 102q-10 0 -10 -18q0 -32 -13 -54t-34 -22q-23 0 -23 47v570q0 126 -62.5 194t-141.5 68q-76 0 -127.5 -45.5t-51.5 -104.5q0 -42 22.5 -63t53.5 -21t51.5 21.5t20.5 60.5q0 26 -20.5 54.5t-20.5 44.5q0 13 14 23.5t47 10.5q78 0 78 -73v-179q0 -8 -0.5 -13.5t-2 -11
t-2 -9t-4 -8.5t-5 -7t-7 -7t-7.5 -7t-10 -8.5t-11 -9.5q-24 -21 -68.5 -51.5t-62.5 -45.5q-96 -80 -96 -241q0 -88 45.5 -155t120.5 -67q44 0 77 22.5t41 70.5h2q0 -37 28 -65t77 -28q53 0 82 28.5t29 82.5q0 16 -9 16zM309 141q0 -71 -21.5 -106t-51.5 -35q-48 0 -52 78
q-4 126 0 244q3 86 32 137t93 94v-412zM473 1341q0 38 -24.5 63.5t-59.5 25.5q-36 0 -61 -25.5t-25 -63.5t25 -62t61 -24t60 24t24 62zM213 1341q0 38 -24.5 63.5t-59.5 25.5q-36 0 -61 -25.5t-25 -63.5t25 -62t61 -24t60 24t24 62z" />
    <glyph glyph-name="aring" unicode="&#xe5;" horiz-adv-x="526" 
d="M526 102q-10 0 -10 -18q0 -32 -13 -54t-34 -22q-23 0 -23 47v570q0 126 -62.5 194t-141.5 68q-76 0 -127.5 -45.5t-51.5 -104.5q0 -42 22.5 -63t53.5 -21t51.5 21.5t20.5 60.5q0 26 -20.5 54.5t-20.5 44.5q0 13 14 23.5t47 10.5q78 0 78 -73v-179q0 -8 -0.5 -13.5t-2 -11
t-2 -9t-4 -8.5t-5 -7t-7 -7t-7.5 -7t-10 -8.5t-11 -9.5q-24 -21 -68.5 -51.5t-62.5 -45.5q-96 -80 -96 -241q0 -88 45.5 -155t120.5 -67q44 0 77 22.5t41 70.5h2q0 -37 28 -65t77 -28q53 0 82 28.5t29 82.5q0 16 -9 16zM309 141q0 -71 -21.5 -106t-51.5 -35q-48 0 -52 78
q-4 126 0 244q3 86 32 137t93 94v-412zM389 1260q0 89 -41 149.5t-108 60.5q-70 0 -110 -61t-40 -152q0 -88 42 -148t110 -60q69 0 108 59.5t39 151.5zM307 1176q-2 -28 -4 -42t-8.5 -34t-19.5 -28.5t-33 -8.5q-37 0 -51.5 30.5t-18.5 82.5q-6 83 0 165q2 26 4.5 42t9.5 35
t20.5 28.5t33.5 9.5q37 0 50 -30t17 -83q6 -83 0 -167z" />
    <glyph glyph-name="ae" unicode="&#xe6;" horiz-adv-x="743" 
d="M735 313q0 23 -14 23t-14 -33q0 -141 -44 -222t-106 -81q-54 0 -78 64t-26 196q0 38 -2 117t-2 104q0 13 12 13h215q29 0 41 17t12 62q0 144 -57 229t-148 85q-82 0 -139 -70q-61 70 -143 70q-76 0 -127.5 -45.5t-51.5 -104.5q0 -42 22.5 -63t53.5 -21t51.5 21.5
t20.5 60.5q0 26 -20.5 54.5t-20.5 44.5q0 13 14 23.5t47 10.5q78 0 78 -73v-179q0 -8 -0.5 -13.5t-2 -11t-2 -9t-4 -8.5t-5 -7t-7 -7t-7.5 -7t-10 -8.5t-11 -9.5q-24 -21 -68.5 -51.5t-62.5 -45.5q-96 -80 -96 -241q0 -89 45 -155.5t123 -66.5q129 0 129 168v7
q33 -88 83.5 -131.5t127.5 -43.5q56 0 97 35.5t60.5 91.5t28 108.5t8.5 102.5zM588 528q0 -16 -17 -16h-112q-4 0 -5.5 0.5t-3 3t-1.5 8.5q0 136 2 195q3 74 17 110.5t48 36.5q32 0 47.5 -34.5t18.5 -110.5q6 -177 6 -193zM309 137q0 -69 -21.5 -103t-51.5 -34q-48 0 -52 78
q-4 126 0 244q3 86 32 138t93 95v-418z" />
    <glyph glyph-name="ccedilla" unicode="&#xe7;" horiz-adv-x="485" 
d="M473 313q0 21 -14 21q-13 0 -13 -28v-3q0 -145 -39 -224t-102 -79q-56 0 -78 62.5t-24 197.5q0 33 -1.5 111.5t-2 121.5t0 107.5t3.5 118.5q3 73 18 110t51 37q27 0 43.5 -10.5t16.5 -28.5q0 -15 -14.5 -39t-14.5 -51q0 -34 23.5 -54.5t54.5 -20.5q33 0 52.5 21.5
t19.5 57.5q0 61 -52 103.5t-125 42.5q-79 0 -133 -63t-78 -163.5t-24 -232.5q0 -182 48.5 -301.5t150.5 -144.5q14 -4 6 -17l-64 -110q-5 -10 0 -15l11 -10q8 -8 16 0q27 27 49 27q30 0 42.5 -31.5t12.5 -101.5q0 -79 -14.5 -112.5t-50.5 -33.5q-60 0 -76 68q-3 15 -12 12
q-13 -3 -6 -25q26 -75 98 -75q65 0 103 50t38 118q0 69 -38 110t-85 41q-36 0 -61 -22l-2 2l59 106q5 8 8.5 10t16.5 2q46 0 80.5 24.5t53 60t30 84.5t15 88.5t3.5 80.5z" />
    <glyph glyph-name="egrave" unicode="&#xe8;" horiz-adv-x="509" 
d="M485 313q0 21 -14 21q-2 0 -4 -0.5t-3 -1.5t-2 -2.5t-1.5 -3.5t-1 -3.5t-0.5 -4.5v-4v-6v-5q0 -141 -45 -222t-107 -81q-54 0 -78 64t-26 196q0 38 -2 117t-2 104q0 13 12 13h215q29 0 41 17t12 62q0 144 -57 229t-148 85q-63 0 -110 -39t-73 -106.5t-38 -145.5t-12 -168
q0 -132 23.5 -230t81 -160.5t145.5 -62.5q56 0 97 35.5t60.5 91.5t28 108.5t8.5 102.5zM338 528q0 -16 -16 -16h-113q-4 0 -5.5 0.5t-3 3t-1.5 8.5q0 136 2 195q3 74 17 110.5t48 36.5q32 0 47.5 -34.5t18.5 -110.5q6 -177 6 -193zM279 989q4 1 4 8t-2 11l-74 284
q-5 20 -12.5 52.5t-11.5 48t-11 32.5t-16 27q-23 25 -53.5 15.5t-30.5 -44.5q0 -16 7 -37t13.5 -35t23 -44t21.5 -41l129 -265q7 -14 13 -12z" />
    <glyph glyph-name="eacute" unicode="&#xe9;" horiz-adv-x="509" 
d="M485 313q0 21 -14 21q-2 0 -4 -0.5t-3 -1.5t-2 -2.5t-1.5 -3.5t-1 -3.5t-0.5 -4.5v-4v-6v-5q0 -141 -45 -222t-107 -81q-54 0 -78 64t-26 196q0 38 -2 117t-2 104q0 13 12 13h215q29 0 41 17t12 62q0 144 -57 229t-148 85q-63 0 -110 -39t-73 -106.5t-38 -145.5t-12 -168
q0 -132 23.5 -230t81 -160.5t145.5 -62.5q56 0 97 35.5t60.5 91.5t28 108.5t8.5 102.5zM338 528q0 -16 -16 -16h-113q-4 0 -5.5 0.5t-3 3t-1.5 8.5q0 136 2 195q3 74 17 110.5t48 36.5q32 0 47.5 -34.5t18.5 -110.5q6 -177 6 -193zM455 1423q0 35 -30.5 44.5t-53.5 -15.5
q-9 -10 -16.5 -27.5t-11 -32t-11.5 -48.5t-13 -52l-73 -284q-2 -4 -2 -11t4 -8q5 -2 11 11l1 1l129 265q6 12 21.5 40.5t23 43.5t14.5 36t7 37z" />
    <glyph glyph-name="ecircumflex" unicode="&#xea;" horiz-adv-x="509" 
d="M485 313q0 21 -14 21q-2 0 -4 -0.5t-3 -1.5t-2 -2.5t-1.5 -3.5t-1 -3.5t-0.5 -4.5v-4v-6v-5q0 -141 -45 -222t-107 -81q-54 0 -78 64t-26 196q0 38 -2 117t-2 104q0 13 12 13h215q29 0 41 17t12 62q0 144 -57 229t-148 85q-63 0 -110 -39t-73 -106.5t-38 -145.5t-12 -168
q0 -132 23.5 -230t81 -160.5t145.5 -62.5q56 0 97 35.5t60.5 91.5t28 108.5t8.5 102.5zM338 528q0 -16 -16 -16h-113q-4 0 -5.5 0.5t-3 3t-1.5 8.5q0 136 2 195q3 74 17 110.5t48 36.5q32 0 47.5 -34.5t18.5 -110.5q6 -177 6 -193zM430 989q4 1 4 8t-2 11l-86 342
q-7 29 -10.5 41t-10.5 31.5t-14 27t-18.5 14t-26.5 6.5t-26.5 -6.5t-18.5 -14t-14 -27t-10.5 -31.5t-10.5 -41l-86 -342q-2 -4 -2 -11t4 -8q6 -2 13 12l151 351h2l150 -351q8 -12 12 -12z" />
    <glyph glyph-name="edieresis" unicode="&#xeb;" horiz-adv-x="509" 
d="M485 313q0 21 -14 21q-2 0 -4 -0.5t-3 -1.5t-2 -2.5t-1.5 -3.5t-1 -3.5t-0.5 -4.5v-4v-6v-5q0 -141 -45 -222t-107 -81q-54 0 -78 64t-26 196q0 38 -2 117t-2 104q0 13 12 13h215q29 0 41 17t12 62q0 144 -57 229t-148 85q-63 0 -110 -39t-73 -106.5t-38 -145.5t-12 -168
q0 -132 23.5 -230t81 -160.5t145.5 -62.5q56 0 97 35.5t60.5 91.5t28 108.5t8.5 102.5zM338 528q0 -16 -16 -16h-113q-4 0 -5.5 0.5t-3 3t-1.5 8.5q0 136 2 195q3 74 17 110.5t48 36.5q32 0 47.5 -34.5t18.5 -110.5q6 -177 6 -193zM471 1341q0 38 -24.5 63.5t-59.5 25.5
q-36 0 -61 -25.5t-25 -63.5t25 -62t61 -24t60 24t24 62zM211 1341q0 38 -24.5 63.5t-59.5 25.5q-36 0 -61 -25.5t-25 -63.5t25 -62t61 -24t60 24t24 62z" />
    <glyph glyph-name="igrave" unicode="&#xec;" horiz-adv-x="325" 
d="M309 10q0 8 -14 8h-41q-11 0 -14.5 18t-3.5 64v752q0 10 -17 10h-188q-15 0 -15 -10q0 -8 15 -8h49q11 0 14.5 -18t3.5 -64v-662q0 -46 -3.5 -64t-14.5 -18h-41q-14 0 -14 -8q0 -10 14 -10h256q14 0 14 10zM150 989q4 1 4 8t-2 11l-74 284q-5 20 -12.5 52.5t-11.5 48
t-11 32.5t-16 27q-23 25 -53.5 15.5t-30.5 -44.5q0 -16 7 -37t13.5 -35t23 -44t21.5 -41l129 -265q7 -14 13 -12z" />
    <glyph glyph-name="iacute" unicode="&#xed;" horiz-adv-x="325" 
d="M309 10q0 8 -14 8h-41q-11 0 -14.5 18t-3.5 64v752q0 10 -17 10h-188q-15 0 -15 -10q0 -8 15 -8h49q11 0 14.5 -18t3.5 -64v-662q0 -46 -3.5 -64t-14.5 -18h-41q-14 0 -14 -8q0 -10 14 -10h256q14 0 14 10zM342 1423q0 35 -30.5 44.5t-53.5 -15.5q-9 -10 -16 -27
t-11 -32.5t-11.5 -48t-12.5 -52.5l-74 -284q-2 -4 -2 -11t4 -8q6 -1 12 12l129 265q6 12 21.5 40.5t23 43.5t14.5 36t7 37z" />
    <glyph glyph-name="icircumflex" unicode="&#xee;" horiz-adv-x="325" 
d="M309 10q0 8 -14 8h-41q-11 0 -14.5 18t-3.5 64v752q0 10 -17 10h-188q-15 0 -15 -10q0 -8 15 -8h49q11 0 14.5 -18t3.5 -64v-662q0 -46 -3.5 -64t-14.5 -18h-41q-14 0 -14 -8q0 -10 14 -10h256q14 0 14 10zM330 989q4 1 4 8t-2 11l-86 342q-7 29 -10.5 41t-10.5 31.5
t-14 27t-18.5 14t-26.5 6.5t-26.5 -6.5t-18.5 -14t-14 -27t-10.5 -31.5t-10.5 -41l-86 -342q-2 -4 -2 -11t4 -8q6 -1 12 12l152 351h2l149 -351q7 -14 13 -12z" />
    <glyph glyph-name="idieresis" unicode="&#xef;" horiz-adv-x="325" 
d="M309 10q0 8 -14 8h-41q-11 0 -14.5 18t-3.5 64v752q0 10 -17 10h-188q-15 0 -15 -10q0 -8 15 -8h49q11 0 14.5 -18t3.5 -64v-662q0 -46 -3.5 -64t-14.5 -18h-41q-14 0 -14 -8q0 -10 14 -10h256q14 0 14 10zM379 1341q0 38 -24.5 63.5t-59.5 25.5q-36 0 -61 -25.5
t-25 -63.5t25 -62t61 -24t60 24t24 62zM119 1341q0 38 -24.5 63.5t-59.5 25.5q-36 0 -61 -25.5t-25 -63.5t25 -62t61 -24t60 24t24 62z" />
    <glyph glyph-name="eth" unicode="&#xf0;" horiz-adv-x="587" 
d="M559 575q0 436 -129 691q-4 8 6 18l105 96q15 14 4 25q-9 9 -23 -4l-98 -92q-9 -9 -18 2q-95 159 -220 159q-68 0 -112 -47q-14 -14 -4 -24q11 -11 24 6q34 39 86 39q106 0 160 -193q3 -15 -6 -24l-101 -94q-15 -15 -6 -25q9 -8 23 6l88 80q11 11 14 0q33 -156 41 -379
h-2q-23 72 -106 72q-69 0 -120 -39t-79 -107t-40.5 -145.5t-12.5 -167.5q0 -87 14.5 -164.5t44 -144t82 -105.5t121.5 -39q79 0 133.5 49t82 139t38 187.5t10.5 224.5zM393 246q-7 -140 -10 -159q-12 -76 -59 -89q-13 -4 -29 -4q-26 0 -43 9.5t-27 26t-15 43t-7 55.5t-4 69
q0 11 -0.5 16.5t-1 15t-0.5 17.5q-9 185 0 370q7 140 10 159q12 76 59 89q13 4 29 4q26 0 43 -9.5t27 -26t15 -43t7 -55.5t4 -69q0 -11 0.5 -16.5t1 -15t0.5 -17.5q9 -185 0 -370z" />
    <glyph glyph-name="ntilde" unicode="&#xf1;" horiz-adv-x="630" 
d="M618 10q0 8 -14 8h-41q-11 0 -14.5 18t-3.5 64v559q0 55 -14 97.5t-34.5 66.5t-47 39t-48 20t-41.5 5q-99 0 -139 -101h-2v66q0 10 -16 10h-185q-14 0 -14 -10q0 -8 14 -8h50q11 0 14.5 -18t3.5 -64v-662q0 -46 -3.5 -64t-14.5 -18h-41q-15 0 -15 -8q0 -10 15 -10h243
q15 0 15 10q0 8 -15 8h-28q-11 0 -15 18.5t-4 63.5v619q0 48 31.5 97.5t81.5 49.5q43 0 57.5 -27t14.5 -75v-664q0 -45 -4 -63.5t-15 -18.5h-29q-14 0 -14 -8q0 -10 14 -10h244q14 0 14 10zM510 1464q0 11 -6 11q-4 1 -5 -1t-1.5 -7t-1.5 -7q-12 -51 -28 -69.5t-46 -18.5
q-28 0 -89.5 16.5t-92.5 16.5q-85 0 -111 -176q0 -10 6 -10q3 -1 5 0.5t2.5 3.5t1.5 5.5t1 4.5q12 51 28 69.5t46 18.5q28 0 87.5 -16.5t90.5 -16.5q87 0 113 176z" />
    <glyph glyph-name="ograve" unicode="&#xf2;" horiz-adv-x="604" 
d="M563 436q0 87 -14.5 164.5t-44 143.5t-82 104.5t-121.5 38.5q-72 0 -124.5 -39t-81 -106.5t-41.5 -145t-13 -168.5q0 -87 14.5 -164.5t44 -144t82 -105.5t121.5 -39q58 0 103.5 26.5t74.5 70t48 104.5t26.5 124.5t7.5 135.5zM401 246q-7 -140 -10 -159q-12 -76 -59 -89
q-13 -4 -29 -4q-26 0 -43 9.5t-27 26t-15 43t-7 55.5t-4 69q0 11 -0.5 16.5t-1 15t-0.5 17.5q-9 185 0 370q7 140 10 159q12 76 59 89q13 4 29 4q26 0 43 -9.5t27 -26t15 -43t7 -55.5t4 -69q0 -11 0.5 -16.5t1 -15t0.5 -17.5q9 -185 0 -370zM303 989q4 1 4 8t-2 11l-74 284
q-5 20 -12.5 52.5t-11.5 48t-11 32.5t-16 27q-23 25 -53.5 15.5t-30.5 -44.5q0 -16 7 -37t14.5 -36t23 -43.5t21.5 -40.5l129 -265q8 -12 12 -12z" />
    <glyph glyph-name="oacute" unicode="&#xf3;" horiz-adv-x="604" 
d="M563 436q0 87 -14.5 164.5t-44 143.5t-82 104.5t-121.5 38.5q-72 0 -124.5 -39t-81 -106.5t-41.5 -145t-13 -168.5q0 -87 14.5 -164.5t44 -144t82 -105.5t121.5 -39q58 0 103.5 26.5t74.5 70t48 104.5t26.5 124.5t7.5 135.5zM401 246q-7 -140 -10 -159q-12 -76 -59 -89
q-13 -4 -29 -4q-26 0 -43 9.5t-27 26t-15 43t-7 55.5t-4 69q0 11 -0.5 16.5t-1 15t-0.5 17.5q-9 185 0 370q7 140 10 159q12 76 59 89q13 4 29 4q26 0 43 -9.5t27 -26t15 -43t7 -55.5t4 -69q0 -11 0.5 -16.5t1 -15t0.5 -17.5q9 -185 0 -370zM492 1423q0 35 -30.5 44.5
t-53.5 -15.5q-9 -10 -16.5 -27.5t-11 -32t-11.5 -48.5t-13 -52l-73 -284q-2 -4 -2 -11t4 -8q5 -2 11 11l1 1l129 265q6 12 21.5 40.5t23 43.5t14.5 36t7 37z" />
    <glyph glyph-name="ocircumflex" unicode="&#xf4;" horiz-adv-x="604" 
d="M563 436q0 87 -14.5 164.5t-44 143.5t-82 104.5t-121.5 38.5q-72 0 -124.5 -39t-81 -106.5t-41.5 -145t-13 -168.5q0 -87 14.5 -164.5t44 -144t82 -105.5t121.5 -39q58 0 103.5 26.5t74.5 70t48 104.5t26.5 124.5t7.5 135.5zM401 246q-7 -140 -10 -159q-12 -76 -59 -89
q-13 -4 -29 -4q-26 0 -43 9.5t-27 26t-15 43t-7 55.5t-4 69q0 11 -0.5 16.5t-1 15t-0.5 17.5q-9 185 0 370q7 140 10 159q12 76 59 89q13 4 29 4q26 0 43 -9.5t27 -26t15 -43t7 -55.5t4 -69q0 -11 0.5 -16.5t1 -15t0.5 -17.5q9 -185 0 -370zM465 989q4 1 4 8t-2 11l-86 342
q-7 29 -10.5 41t-10.5 31.5t-14 27t-18.5 14t-26.5 6.5t-26.5 -6.5t-18.5 -14t-14 -27t-10.5 -31.5t-10.5 -41l-86 -342q-2 -4 -2 -11t4 -8q6 -2 13 12l151 351h2l150 -351q8 -12 12 -12z" />
    <glyph glyph-name="otilde" unicode="&#xf5;" horiz-adv-x="604" 
d="M563 436q0 87 -14.5 164.5t-44 143.5t-82 104.5t-121.5 38.5q-72 0 -124.5 -39t-81 -106.5t-41.5 -145t-13 -168.5q0 -87 14.5 -164.5t44 -144t82 -105.5t121.5 -39q58 0 103.5 26.5t74.5 70t48 104.5t26.5 124.5t7.5 135.5zM401 246q-7 -140 -10 -159q-12 -76 -59 -89
q-13 -4 -29 -4q-26 0 -43 9.5t-27 26t-15 43t-7 55.5t-4 69q0 11 -0.5 16.5t-1 15t-0.5 17.5q-9 185 0 370q7 140 10 159q12 76 59 89q13 4 29 4q26 0 43 -9.5t27 -26t15 -43t7 -55.5t4 -69q0 -11 0.5 -16.5t1 -15t0.5 -17.5q9 -185 0 -370zM504 1464q0 11 -6 11
q-4 1 -5.5 -1t-2.5 -7.5t-1 -6.5q-12 -51 -27.5 -69.5t-45.5 -18.5q-28 0 -90 16.5t-93 16.5q-84 0 -110 -176q0 -10 6 -10q3 -1 5 0.5t2.5 3.5t1.5 5.5t1 4.5q12 51 28 69.5t46 18.5q28 0 87.5 -16.5t90.5 -16.5q87 0 113 176z" />
    <glyph glyph-name="odieresis" unicode="&#xf6;" horiz-adv-x="604" 
d="M563 436q0 87 -14.5 164.5t-44 143.5t-82 104.5t-121.5 38.5q-72 0 -124.5 -39t-81 -106.5t-41.5 -145t-13 -168.5q0 -87 14.5 -164.5t44 -144t82 -105.5t121.5 -39q58 0 103.5 26.5t74.5 70t48 104.5t26.5 124.5t7.5 135.5zM401 246q-7 -140 -10 -159q-12 -76 -59 -89
q-13 -4 -29 -4q-26 0 -43 9.5t-27 26t-15 43t-7 55.5t-4 69q0 11 -0.5 16.5t-1 15t-0.5 17.5q-9 185 0 370q7 140 10 159q12 76 59 89q13 4 29 4q26 0 43 -9.5t27 -26t15 -43t7 -55.5t4 -69q0 -11 0.5 -16.5t1 -15t0.5 -17.5q9 -185 0 -370zM512 1341q0 38 -24.5 63.5
t-59.5 25.5q-36 0 -61 -25.5t-25 -63.5t25 -62t61 -24t60 24t24 62zM252 1341q0 38 -24.5 63.5t-59.5 25.5q-36 0 -61 -25.5t-25 -63.5t25 -62t61 -24t60 24t24 62z" />
    <glyph glyph-name="divide" unicode="&#xf7;" horiz-adv-x="798" 
d="M481 819q0 35 -24 58.5t-58 23.5t-58 -23.5t-24 -58.5t24 -58.5t58 -23.5t58 23.5t24 58.5zM737 582q0 18 -24 18h-625q-27 0 -27 -20q0 -19 27 -19h625q24 0 24 21zM483 342q0 35 -24 58.5t-58 23.5t-58 -23.5t-24 -58.5t24 -58.5t58 -23.5t58 23.5t24 58.5z" />
    <glyph glyph-name="oslash" unicode="&#xf8;" horiz-adv-x="604" 
d="M563 436q0 256 -104 377l67 174q8 23 -8 29q-15 6 -22 -15l-62 -161q-53 47 -133 47q-72 0 -124.5 -39t-81 -106.5t-41.5 -145t-13 -168.5q0 -245 94 -367l-57 -149q-7 -20 10 -27q14 -6 21 15l51 133q58 -58 143 -58q58 0 103.5 26.5t74.5 70t48 104.5t26.5 124.5
t7.5 135.5zM395 739l-190 -495q-7 223 0 372q7 140 10 159q12 76 59 89q13 4 29 4q39 0 58.5 -21.5t27.5 -64.5q5 -35 6 -43zM401 246q-7 -140 -10 -159q-12 -76 -59 -89q-13 -4 -29 -4q-48 0 -67.5 32t-24.5 99q0 6 -1 17.5t-1 17.5l190 497q10 -228 2 -411z" />
    <glyph glyph-name="ugrave" unicode="&#xf9;" horiz-adv-x="622" 
d="M602 10q0 8 -14 8h-49q-11 0 -15 18.5t-4 63.5v752q0 10 -14 10h-182q-15 0 -15 -10q0 -8 15 -8h41q11 0 14.5 -18t3.5 -64v-619q0 -50 -29.5 -98.5t-79.5 -48.5q-59 0 -59 102v754q0 10 -14 10h-183q-14 0 -14 -10q0 -8 14 -8h41q11 0 15 -18.5t4 -63.5v-559
q0 -55 13 -97.5t32 -66.5t44 -39t45.5 -20t39.5 -5q101 0 133 101h2v-66q0 -10 16 -10h185q14 0 14 10zM303 989q4 1 4 8t-2 11l-74 284q-5 20 -12.5 52.5t-11.5 48t-11 32.5t-16 27q-23 25 -53.5 15.5t-30.5 -44.5q0 -16 7 -37t14.5 -36t23 -43.5t21.5 -40.5l129 -265
q8 -12 12 -12z" />
    <glyph glyph-name="uacute" unicode="&#xfa;" horiz-adv-x="622" 
d="M602 10q0 8 -14 8h-49q-11 0 -15 18.5t-4 63.5v752q0 10 -14 10h-182q-15 0 -15 -10q0 -8 15 -8h41q11 0 14.5 -18t3.5 -64v-619q0 -50 -29.5 -98.5t-79.5 -48.5q-59 0 -59 102v754q0 10 -14 10h-183q-14 0 -14 -10q0 -8 14 -8h41q11 0 15 -18.5t4 -63.5v-559
q0 -55 13 -97.5t32 -66.5t44 -39t45.5 -20t39.5 -5q101 0 133 101h2v-66q0 -10 16 -10h185q14 0 14 10zM504 1423q0 35 -30.5 44.5t-53.5 -15.5q-9 -10 -16 -27t-11 -32.5t-11.5 -48t-12.5 -52.5l-74 -284q-2 -4 -2 -11t4 -8q5 -2 11 11l1 1l129 265q6 12 21.5 40.5t23 43.5
t14.5 36t7 37z" />
    <glyph glyph-name="ucircumflex" unicode="&#xfb;" horiz-adv-x="622" 
d="M602 10q0 8 -14 8h-49q-11 0 -15 18.5t-4 63.5v752q0 10 -14 10h-182q-15 0 -15 -10q0 -8 15 -8h41q11 0 14.5 -18t3.5 -64v-619q0 -50 -29.5 -98.5t-79.5 -48.5q-59 0 -59 102v754q0 10 -14 10h-183q-14 0 -14 -10q0 -8 14 -8h41q11 0 15 -18.5t4 -63.5v-559
q0 -55 13 -97.5t32 -66.5t44 -39t45.5 -20t39.5 -5q101 0 133 101h2v-66q0 -10 16 -10h185q14 0 14 10zM471 989q4 1 4 8t-2 11l-86 342q-7 29 -10.5 41t-10.5 31.5t-14 27t-18.5 14t-26.5 6.5t-26.5 -6.5t-18.5 -14t-14 -27t-10.5 -31.5t-10.5 -41l-86 -342q-2 -4 -2 -11
t4 -8q6 -2 13 12l151 351h2l150 -351q8 -12 12 -12z" />
    <glyph glyph-name="udieresis" unicode="&#xfc;" horiz-adv-x="622" 
d="M602 10q0 8 -14 8h-49q-11 0 -15 18.5t-4 63.5v752q0 10 -14 10h-182q-15 0 -15 -10q0 -8 15 -8h41q11 0 14.5 -18t3.5 -64v-619q0 -50 -29.5 -98.5t-79.5 -48.5q-59 0 -59 102v754q0 10 -14 10h-183q-14 0 -14 -10q0 -8 14 -8h41q11 0 15 -18.5t4 -63.5v-559
q0 -55 13 -97.5t32 -66.5t44 -39t45.5 -20t39.5 -5q101 0 133 101h2v-66q0 -10 16 -10h185q14 0 14 10zM522 1341q0 38 -24.5 63.5t-59.5 25.5q-36 0 -61 -25.5t-25 -63.5t25 -62t61 -24t60 24t24 62zM262 1341q0 38 -24.5 63.5t-59.5 25.5q-36 0 -61 -25.5t-25 -63.5
t25 -62t61 -24t60 24t24 62z" />
    <glyph glyph-name="yacute" unicode="&#xfd;" horiz-adv-x="585" 
d="M582 852q0 10 -15 10h-196q-15 0 -15 -10q0 -8 15 -8h22q62 0 62 -99q0 -63 -29 -188l-80 -336h-2l-133 541q-19 82 10 82h33q14 0 14 8q0 10 -14 10h-236q-14 0 -14 -10q0 -8 14 -8h7q12 0 21.5 -17.5t21.5 -64.5l186 -707q5 -19 12 -43t11 -39t4 -24v-395
q0 -56 -24.5 -87.5t-63.5 -31.5q-13 0 -25 8t-12 18q0 19 13 40.5t13 49.5q0 34 -24.5 56t-57.5 22q-34 0 -55.5 -22.5t-21.5 -59.5q0 -58 45.5 -94.5t103.5 -36.5q65 0 98 40t33 106v387q0 8 25 106l123 504q24 99 45 166q3 9 9.5 34.5t10 35t11 24t17 20t23.5 5.5
q15 0 15 8zM518 1423q0 35 -30.5 44.5t-53.5 -15.5q-9 -10 -16 -27t-11 -32.5t-11.5 -48t-12.5 -52.5l-74 -284q-2 -4 -2 -11t4 -8q6 -2 13 12l129 265q5 11 21.5 41t23 44t13.5 35t7 37z" />
    <glyph glyph-name="thorn" unicode="&#xfe;" horiz-adv-x="624" 
d="M584 432q0 213 -65.5 334t-168.5 121q-46 0 -79.5 -25t-45.5 -65h-2v637q0 12 -14 12h-191q-14 0 -14 -10q0 -9 14 -9h50q11 0 14.5 -17.5t3.5 -63.5v-1829q0 -46 -3.5 -64t-14.5 -18h-50q-14 0 -14 -8q0 -11 14 -11h293q15 0 15 11q0 8 -15 8h-69q-11 0 -15 18.5
t-4 63.5v555h2q11 -38 42.5 -67.5t82.5 -29.5q103 0 168.5 122t65.5 335zM424 248q-7 -135 -25 -193.5t-67 -58.5q-46 0 -77.5 52.5t-31.5 107.5v563q0 54 32 100.5t77 46.5q49 0 67 -58.5t25 -193.5q8 -202 0 -366z" />
    <glyph glyph-name="ydieresis" unicode="&#xff;" horiz-adv-x="585" 
d="M582 852q0 10 -15 10h-196q-15 0 -15 -10q0 -8 15 -8h22q62 0 62 -99q0 -63 -29 -188l-80 -336h-2l-133 541q-19 82 10 82h33q14 0 14 8q0 10 -14 10h-236q-14 0 -14 -10q0 -8 14 -8h7q12 0 21.5 -17.5t21.5 -64.5l186 -707q5 -19 12 -43t11 -39t4 -24v-395
q0 -56 -24.5 -87.5t-63.5 -31.5q-13 0 -25 8t-12 18q0 19 13 40.5t13 49.5q0 34 -24.5 56t-57.5 22q-34 0 -55.5 -22.5t-21.5 -59.5q0 -58 45.5 -94.5t103.5 -36.5q65 0 98 40t33 106v387q0 8 25 106l123 504q24 99 45 166q3 9 9.5 34.5t10 35t11 24t17 20t23.5 5.5
q15 0 15 8zM514 1341q0 38 -24.5 63.5t-59.5 25.5q-36 0 -61 -25.5t-25 -63.5t25 -62t61 -24t60 24t24 62zM254 1341q0 38 -24.5 63.5t-59.5 25.5q-36 0 -61 -25.5t-25 -63.5t25 -62t61 -24t60 24t24 62z" />
    <glyph glyph-name="dotlessi" unicode="&#x131;" horiz-adv-x="325" 
d="M309 10q0 8 -14 8h-41q-11 0 -14.5 18t-3.5 64v752q0 10 -17 10h-188q-15 0 -15 -10q0 -8 15 -8h49q11 0 14.5 -18t3.5 -64v-662q0 -46 -3.5 -64t-14.5 -18h-41q-14 0 -14 -8q0 -10 14 -10h256q14 0 14 10z" />
    <glyph glyph-name="Lslash" unicode="&#x141;" horiz-adv-x="696" 
d="M635 14v432q0 15 -12 15q-11 0 -11 -15v-34q0 -33 -3.5 -71t-20 -98t-43 -106t-79.5 -80t-124 -34h-33q-14 0 -14 8v790q0 14 12 21l117 65q17 9 10 23q-5 10 -24 0l-103 -56q-7 -4 -9.5 0.5t-2.5 14.5v465q0 71 18 71h72q14 0 14 11q0 10 -14 10h-326q-14 0 -14 -10
q0 -11 14 -11h52q18 0 18 -73v-561q0 -4 -3 -9t-6 -8l-3 -4l-90 -51q-18 -9 -11 -23q5 -11 23 -2l78 43q7 4 9.5 0t2.5 -14v-629q0 -74 -18 -74h-52q-14 0 -14 -10t14 -10h564q12 0 12 14z" />
    <glyph glyph-name="lslash" unicode="&#x142;" horiz-adv-x="313" 
d="M334 889q-5 11 -23 0l-63 -37q-7 -4 -9.5 0t-2.5 14v570q0 10 -17 10h-188q-15 0 -15 -10q0 -9 15 -9h49q11 0 14.5 -17.5t3.5 -63.5v-564q0 -11 -12 -18l-72 -41q-13 -8 -8 -18q6 -11 19 -3l61 35q7 4 9.5 0t2.5 -14v-623q0 -46 -3.5 -64t-14.5 -18h-41q-14 0 -14 -8
q0 -10 14 -10h256q14 0 14 10q0 8 -14 8h-41q-11 0 -14.5 18t-3.5 64v705q0 13 12 20l76 43q16 9 10 21z" />
    <glyph glyph-name="OE" unicode="&#x152;" horiz-adv-x="1064" 
d="M1004 14v432q0 15 -13 15q-10 0 -10 -15v-34q0 -33 -3.5 -71t-20 -98t-43 -106t-79.5 -80t-124 -34h-152q-8 0 -8 8q0 10 4 14q176 176 176 692q37 -18 58.5 -80.5t21.5 -130.5v-28q0 -15 12 -15q11 0 11 15v510q0 14 -11 14q-4 0 -6 -0.5t-4 -3.5t-2 -10v-29
q0 -67 -21.5 -129t-58.5 -80q-3 210 -48 380.5t-128 252.5q-4 4 -4 12t8 8h156q61 0 104.5 -38.5t64 -101t28.5 -119.5t8 -115v-37q0 -15 12 -15t12 15v420q0 14 -12 14h-434q-47 24 -101 24q-88 0 -155.5 -61.5t-106.5 -168.5t-58.5 -238.5t-19.5 -284.5q0 -148 19.5 -278
t58.5 -235.5t105 -167t151 -61.5q55 0 103 25h497q13 0 13 14zM526 426q0 -13 -1 -52t-1.5 -61t-2.5 -61.5t-6.5 -64.5t-10.5 -58t-16 -54t-23.5 -40.5t-32 -29t-41.5 -9.5q-118 0 -128 395q-1 17 -1 25q-9 302 0 604q0 13 1 52t1.5 61t2.5 61.5t6.5 64.5t10.5 58t16 54
t23.5 40.5t32 29t41.5 9.5q118 0 128 -392q1 -16 1 -24q9 -304 0 -608z" />
    <glyph glyph-name="oe" unicode="&#x153;" horiz-adv-x="870" 
d="M846 313q0 21 -15 21q-2 0 -4 -0.5t-3 -1.5t-2 -2.5t-1.5 -3.5t-1 -3.5t-0.5 -4.5v-4v-6v-5q0 -141 -44.5 -222t-106.5 -81q-54 0 -78.5 64.5t-26.5 195.5q0 38 -2 117t-2 104q0 13 12 13h215q29 0 41.5 17.5t12.5 61.5q0 144 -57 229t-148 85q-100 0 -158 -101
q-65 101 -176 101q-72 0 -124.5 -39t-81 -106.5t-41.5 -145t-13 -168.5q0 -87 14.5 -164.5t44 -144t82 -105.5t121.5 -39q111 0 176 99q63 -99 172 -99q56 0 97 35.5t61 91.5t28.5 108.5t8.5 102.5zM698 528q0 -16 -16 -16h-113q-4 0 -5.5 0.5t-3 3t-1.5 8.5q0 136 2 195
q3 73 17.5 110t48.5 37q32 0 47 -34.5t18 -110.5q6 -177 6 -193zM401 246q-7 -140 -10 -159q-12 -76 -59 -89q-13 -4 -29 -4q-26 0 -43 9.5t-27 26t-15 43t-7 55.5t-4 69q0 11 -0.5 16.5t-1 15t-0.5 17.5q-9 185 0 370q7 140 10 159q12 76 59 89q13 4 29 4q26 0 43 -9.5
t27 -26t15 -43t7 -55.5t4 -69q0 -11 0.5 -16.5t1 -15t0.5 -17.5q9 -185 0 -370z" />
    <glyph glyph-name="Scaron" unicode="&#x160;" horiz-adv-x="610" 
d="M569 367q0 90 -23 167t-59.5 134t-80.5 109.5t-88.5 103t-81 103t-59.5 122.5t-23 149q0 92 34.5 141.5t92.5 49.5q47 0 82 -37t52.5 -87t28 -117t13 -110t2.5 -83v-15q0 -16 12 -16t12 16v435q0 20 -12 20t-12 -20v-13q0 -29 -39 2q-66 49 -121 49q-63 0 -111 -40.5
t-73 -103t-37 -125t-12 -120.5q0 -86 23 -161.5t59.5 -132t80.5 -109t88.5 -103t81 -103.5t59.5 -122t23 -147q0 -94 -53.5 -148.5t-126.5 -54.5q-35 0 -64 13.5t-49.5 33.5t-37 54t-26.5 62t-17 72t-10 70.5t-5 70t-2 57.5v46v10q0 17 -12 17t-12 -17v-473q0 -20 12 -20
t12 20v11q0 17 29 2q92 -54 170 -54q120 0 200 110t80 282zM465 2025q2 4 2 11t-4 8q-5 2 -11 -11l-1 -1l-152 -351h-2l-150 351q-8 12 -12 12q-4 -1 -4 -8t2 -11l86 -342q7 -29 10.5 -41t10.5 -31.5t14 -27t18.5 -14t26.5 -6.5t26.5 6.5t18.5 14t14 27t10.5 31.5t10.5 41z
" />
    <glyph glyph-name="scaron" unicode="&#x161;" horiz-adv-x="436" 
d="M416 215q0 59 -16.5 109t-43 86t-58 68t-63.5 62t-58.5 60.5t-43 70.5t-16.5 85q0 25 6.5 48t28.5 43.5t57 20.5q50 0 89.5 -61.5t39.5 -192.5v-14q0 -12 10 -12t10 12v264q0 15 -10 15t-10 -15v-8q0 -12 -21 -2q-55 33 -102 33q-45 0 -80 -23t-54 -60t-28.5 -76.5
t-9.5 -78.5q0 -58 16.5 -107.5t43 -85t58 -67.5t63.5 -61t58.5 -59t43 -69.5t16.5 -84.5t-31 -83t-90 -38q-162 0 -162 303v14q0 11 -10 11t-10 -11v-301q0 -14 10 -14t10 14v6q0 4 1.5 6t4.5 1.5t5 -1.5t5.5 -2.5t4.5 -1.5q80 -43 143 -43q79 0 136 64.5t57 175.5z
M381 1452q7 15 -2 18q-5 2 -11 -11l-1 -1l-152 -350h-2l-150 350q-8 12 -12 12q-9 -3 -2 -18l86 -342q7 -30 10.5 -41.5t10.5 -31.5t14 -27.5t18.5 -14t26.5 -6.5t26.5 6.5t18.5 14t14 27.5t10.5 31.5t10.5 41.5z" />
    <glyph glyph-name="Ydieresis" unicode="&#x178;" horiz-adv-x="720" 
d="M717 1436q0 10 -15 10h-221q-14 0 -14 -10q0 -11 14 -11h43q86 0 37 -165q-14 -47 -38.5 -125t-56.5 -178l-48 -150l-166 536q-14 51 -10 66.5t24 15.5h37q14 0 14 11q0 10 -14 10h-285q-14 0 -14 -10q0 -11 14 -11h2q21 0 33 -16t27 -66l170 -550q8 -24 8 -54v-645
q0 -74 -18 -74h-52q-14 0 -14 -10t14 -10h306q14 0 14 10t-14 10h-52q-18 0 -18 74v645q0 31 10 60q17 50 71 206t73 212q47 138 64 167q24 41 56 41h4q15 0 15 11zM618 1737q0 38 -24 63t-59 25q-36 0 -61 -25t-25 -63t25 -62t61 -24t59.5 24t23.5 62zM358 1737
q0 38 -24 63t-60 25t-61 -25t-25 -63t25 -62t61 -24t60 24t24 62z" />
    <glyph glyph-name="Zcaron" unicode="&#x17d;" horiz-adv-x="677" 
d="M637 14v502q0 14 -12 14q-4 0 -6 -0.5t-4.5 -4t-2.5 -9.5v-78q0 -178 -75.5 -296.5t-190.5 -118.5h-160v2l420 1364q6 15 6 36t-20 21h-461q-14 0 -14 -14v-461q0 -15 12 -15t12 15v57q0 66 11.5 131t36 126.5t70.5 99.5t108 38h73v-2l-413 -1360q-7 -35 -7 -36
q0 -9 5.5 -17t15.5 -8h582q14 0 14 14zM514 2025q2 4 2 11t-4 8q-5 2 -11 -11l-1 -1l-152 -351h-2l-149 351q-7 14 -13 12q-4 -1 -4 -8t2 -11l86 -342q7 -29 10.5 -41t10.5 -31.5t14 -27t18.5 -14t26.5 -6.5t26.5 6.5t18.5 14t14 27t10.5 31.5t10.5 41z" />
    <glyph glyph-name="zcaron" unicode="&#x17e;" horiz-adv-x="483" 
d="M461 14v361q0 12 -10 12q-11 0 -11 -12v-35q0 -62 -3.5 -105.5t-14.5 -87t-31 -69.5t-54 -42t-83 -16h-104v5l288 802q4 12 4 23q0 12 -12 12h-348q-10 0 -10 -14v-297q0 -12 10 -12t10 12v35q0 45 1.5 72.5t11.5 67t28.5 61.5t54.5 38.5t88 16.5h27v-2l-287 -803
q-4 -12 -4 -23q0 -14 13 -14h426q10 0 10 14zM412 1452q7 15 -2 18q-6 2 -13 -12l-151 -350h-2l-150 350q-8 12 -12 12q-9 -3 -2 -18l86 -342q7 -30 10.5 -41.5t10.5 -31.5t14 -27.5t18.5 -14t26.5 -6.5t26.5 6.5t18.5 14t14 27.5t10.5 31.5t10.5 41.5z" />
    <glyph glyph-name="florin" unicode="&#x192;" horiz-adv-x="684" 
d="M713 1040q0 76 -55 125t-132 49q-61 0 -111.5 -28.5t-84 -72.5t-58.5 -102t-38 -113t-19 -110q-8 -70 -16 -202h-168q-5 0 -9 -4.5t-4 -10.5q0 -12 13 -12h166q-9 -149 -15 -293q-4 -88 -9.5 -150.5t-14 -126.5t-21 -106t-30.5 -76.5t-43 -50.5t-58 -16q-25 0 -44 12.5
t-19 36.5q0 23 14 39.5t28.5 36.5t14.5 51q0 30 -22 51t-52 21q-44 0 -67 -29t-23 -74q0 -71 49 -118.5t129 -47.5q51 0 96.5 28t78 75.5t58.5 103.5t43 120t27 116.5t15 99.5q10 94 22 297h215q11 0 11 14q0 13 -11 13h-213q2 33 6.5 99t6.5 99q0 1 2 40t3.5 54.5t5 57
t9 63.5t14 57.5t20.5 55.5t28 41.5t37 31t47 9.5t45.5 -13.5t19.5 -37.5q0 -19 -9 -35t-20.5 -26t-20.5 -29t-9 -45q0 -31 23 -53.5t54 -22.5q47 0 71 30.5t24 77.5z" />
    <glyph glyph-name="circumflex" unicode="&#x2c6;" 
d="M471 989q4 1 4 8t-2 11l-86 342q-7 29 -10.5 41t-10.5 31.5t-14 27t-18.5 14t-26.5 6.5t-26.5 -6.5t-18.5 -14t-14 -27t-10.5 -31.5t-10.5 -41l-86 -342q-2 -4 -2 -11t4 -8q6 -2 13 12l151 351h2l150 -351q8 -12 12 -12z" />
    <glyph glyph-name="caron" unicode="&#x2c7;" 
d="M473 1452q7 15 -2 18q-5 2 -11 -11l-1 -1l-152 -350h-2l-149 350q-7 14 -13 12q-9 -3 -2 -18l86 -342q7 -30 10.5 -41.5t10.5 -31.5t14 -27.5t18.5 -14t26.5 -6.5t26.5 6.5t18.5 14t14 27.5t10.5 31.5t10.5 41.5z" />
    <glyph glyph-name="breve" unicode="&#x2d8;" 
d="M500 1497q3 10 -4 10q-7 2 -10 -9q0 -1 -0.5 -1.5t-0.5 -1.5q-18 -83 -54 -115t-124 -32t-124 32t-54 115q0 1 -1 4q-3 10 -9 8q-7 0 -4 -10q12 -54 25.5 -92t35.5 -72t54.5 -51.5t76.5 -17.5q83 0 125.5 60.5t67.5 172.5z" />
    <glyph glyph-name="dotaccent" unicode="&#x2d9;" 
d="M397 1335q0 40 -25.5 67.5t-62.5 27.5t-63.5 -27.5t-26.5 -67.5q0 -39 26.5 -65.5t63.5 -26.5t62.5 26.5t25.5 65.5z" />
    <glyph glyph-name="ring" unicode="&#x2da;" 
d="M457 1260q0 89 -41.5 149.5t-108.5 60.5q-70 0 -109.5 -61t-39.5 -152q0 -88 41.5 -148t109.5 -60q70 0 109 60t39 151zM375 1176q-2 -27 -4.5 -42t-8.5 -34t-19.5 -28t-33.5 -9q-37 0 -51 30.5t-18 82.5q-6 83 0 165q2 27 4.5 42.5t9 34.5t20 28.5t33.5 9.5t33 -9
t20 -27.5t10 -35t5 -41.5q6 -83 0 -167z" />
    <glyph glyph-name="ogonek" unicode="&#x2db;" 
d="M422 -342q-9 3 -12 -12q-19 -68 -76 -68q-36 0 -51 28.5t-15 96.5q0 106 22.5 158t96.5 129h-25q-92 -90 -133 -151.5t-41 -133.5q0 -58 35.5 -102.5t106.5 -44.5q72 0 98 75q7 22 -6 25z" />
    <glyph glyph-name="tilde" unicode="&#x2dc;" 
d="M498 1464q0 11 -6 11q-4 1 -5.5 -1t-2.5 -7.5t-1 -6.5q-12 -51 -27.5 -69.5t-45.5 -18.5q-28 0 -90 16.5t-93 16.5q-84 0 -110 -176q0 -10 6 -10q3 -1 5 0.5t2.5 3.5t1.5 5.5t1 4.5q12 51 28 69.5t46 18.5q28 0 87.5 -16.5t90.5 -16.5q87 0 113 176z" />
    <glyph glyph-name="hungarumlaut" unicode="&#x2dd;" 
d="M319 1423q0 35 -30 44.5t-53 -15.5q-9 -10 -16.5 -27.5t-11 -32t-11.5 -48.5t-13 -52l-73 -284q-2 -4 -2 -11t4 -8q5 -2 11 11l1 1l129 265q5 11 21.5 41t23 44t13.5 35t7 37zM504 1423q0 35 -30.5 44.5t-53.5 -15.5q-9 -10 -16 -27t-11 -32.5t-11.5 -48t-12.5 -52.5
l-74 -284q-2 -4 -2 -11t4 -8q5 -2 11 11l1 1l129 265q6 12 21.5 40.5t23 43.5t14.5 36t7 37z" />
    <glyph glyph-name="endash" unicode="&#x2013;" 
d="M553 483v17q0 12 -21 12h-450q-21 0 -21 -12v-17q0 -12 21 -12h450q21 0 21 12z" />
    <glyph glyph-name="emdash" unicode="&#x2014;" horiz-adv-x="1228" 
d="M1167 483v17q0 12 -20 12h-1065q-21 0 -21 -12v-17q0 -12 21 -12h1065q20 0 20 12z" />
    <glyph glyph-name="quoteleft" unicode="&#x2018;" horiz-adv-x="307" 
d="M258 1198q0 32 -22 55t-52 23q-16 0 -36 -12.5t-31 -12.5q-17 0 -27 17t-10 41q0 57 36 98t93 41q12 0 25 -2l14 -2q10 0 10 12q0 14 -45 14q-76 0 -120 -52t-44 -128q0 -87 37.5 -131.5t85.5 -44.5q36 0 61 24t25 60z" />
    <glyph glyph-name="quoteright" unicode="&#x2019;" horiz-adv-x="307" 
d="M258 1294q0 87 -37.5 131.5t-85.5 44.5q-36 0 -61 -24t-25 -60q0 -32 22 -54.5t52 -22.5q17 0 37 12t30 12q17 0 27 -16.5t10 -40.5q0 -57 -36 -98t-93 -41q-12 0 -26 2l-13 2q-10 0 -10 -13q0 -14 45 -14q76 0 120 52t44 128z" />
    <glyph glyph-name="quotesinglbase" unicode="&#x201a;" horiz-adv-x="307" 
d="M258 -8q0 87 -37.5 131.5t-85.5 44.5q-36 0 -61 -24t-25 -60q0 -32 22 -55t52 -23q17 0 37 12.5t30 12.5q17 0 27 -17t10 -41q0 -57 -36 -98t-93 -41q-12 0 -26 2l-13 2q-10 0 -10 -12q0 -14 45 -14q76 0 120 52t44 128z" />
    <glyph glyph-name="quotedblleft" unicode="&#x201c;" horiz-adv-x="573" 
d="M524 1198q0 32 -22 55t-51 23q-17 0 -37 -12.5t-31 -12.5q-17 0 -27 17t-10 41q0 57 36 98t93 41q12 0 25 -2l14 -2q10 0 10 12q0 14 -45 14q-76 0 -120 -52t-44 -128q0 -87 37.5 -131.5t85.5 -44.5q36 0 61 24t25 60zM258 1198q0 32 -22 55t-52 23q-16 0 -36 -12.5
t-31 -12.5q-17 0 -27 17t-10 41q0 57 36 98t93 41q12 0 25 -2l14 -2q10 0 10 12q0 14 -45 14q-76 0 -120 -52t-44 -128q0 -87 37.5 -131.5t85.5 -44.5q36 0 61 24t25 60z" />
    <glyph glyph-name="quotedblright" unicode="&#x201d;" horiz-adv-x="573" 
d="M524 1294q0 87 -37.5 131.5t-85.5 44.5q-36 0 -61 -24t-25 -60q0 -32 22 -54.5t52 -22.5q17 0 37.5 12t30.5 12q17 0 27 -16.5t10 -40.5q0 -57 -36 -98t-93 -41q-12 0 -25 2l-14 2q-11 0 -11 -13q0 -14 45 -14q76 0 120 52t44 128zM258 1294q0 87 -37.5 131.5t-85.5 44.5
q-36 0 -61 -24t-25 -60q0 -32 22 -54.5t52 -22.5q17 0 37 12t30 12q17 0 27 -16.5t10 -40.5q0 -57 -36 -98t-93 -41q-12 0 -26 2l-13 2q-10 0 -10 -13q0 -14 45 -14q76 0 120 52t44 128z" />
    <glyph glyph-name="quotedblbase" unicode="&#x201e;" horiz-adv-x="573" 
d="M524 -8q0 87 -37.5 131.5t-85.5 44.5q-36 0 -61 -24t-25 -60q0 -32 22 -55t52 -23q17 0 37 12.5t31 12.5q17 0 27 -17t10 -41q0 -57 -36 -98t-93 -41q-12 0 -25 2l-14 2q-11 0 -11 -12q0 -14 45 -14q76 0 120 52t44 128zM258 -8q0 87 -37.5 131.5t-85.5 44.5
q-36 0 -61 -24t-25 -60q0 -32 22 -55t52 -23q17 0 37 12.5t30 12.5q17 0 27 -17t10 -41q0 -57 -36 -98t-93 -41q-12 0 -26 2l-13 2q-10 0 -10 -12q0 -14 45 -14q76 0 120 52t44 128z" />
    <glyph glyph-name="dagger" unicode="&#x2020;" horiz-adv-x="778" 
d="M713 1061q0 31 -24 53.5t-60 22.5q-29 0 -105.5 -33.5t-126.5 -38.5q7 66 41.5 173.5t34.5 145.5q0 37 -25.5 61.5t-58.5 24.5t-58.5 -24.5t-25.5 -61.5q0 -38 34.5 -145.5t41.5 -173.5q-50 5 -126 38.5t-105 33.5q-36 0 -60 -22.5t-24 -53.5q0 -32 24 -56t60 -24
q29 0 105 32.5t126 37.5q0 -93 -3.5 -159t-13.5 -129t-30.5 -95.5t-52.5 -32.5h-11q-14 0 -14 -6t14 -6h11q60 0 80 -101.5t20 -294.5v-227h16v227q0 192 20.5 294t80.5 102h10q14 0 14 6t-14 6h-10q-22 0 -38.5 15t-27.5 45t-18 65.5t-10.5 86t-5 97t-1.5 107.5
q50 -5 126.5 -37.5t105.5 -32.5q36 0 60 24t24 56z" />
    <glyph glyph-name="daggerdbl" unicode="&#x2021;" horiz-adv-x="778" 
d="M713 344q0 32 -24 56t-60 24q-29 0 -105.5 -32.5t-126.5 -37.5q0 186 20 274.5t81 88.5h10q14 0 14 6t-14 6h-10q-62 0 -81.5 87t-19.5 274q50 -5 126.5 -37.5t105.5 -32.5q36 0 60 24t24 56q0 31 -24 53.5t-60 22.5q-29 0 -105.5 -33.5t-126.5 -38.5q6 49 41 149t35 131
q0 37 -25.5 61.5t-58.5 24.5t-58.5 -24.5t-25.5 -61.5q0 -31 35 -131t41 -149q-50 5 -126 38.5t-105 33.5q-36 0 -60 -22.5t-24 -53.5q0 -32 24 -56t60 -24q29 0 105 32.5t126 37.5q0 -186 -19.5 -273.5t-80.5 -87.5h-11q-14 0 -14 -6t14 -6h11q62 0 81 -87t19 -276
q-50 5 -126 37.5t-105 32.5q-36 0 -60 -24t-24 -56q0 -31 24 -53.5t60 -22.5q29 0 105 33.5t126 38.5q-6 -49 -41 -148.5t-35 -130.5q0 -37 25.5 -61.5t58.5 -24.5t58.5 24.5t25.5 61.5q0 31 -35 130.5t-41 148.5q50 -5 126.5 -38.5t105.5 -33.5q36 0 60 22.5t24 53.5z" />
    <glyph glyph-name="bullet" unicode="&#x2022;" 
d="M528 600q0 114 -61 185t-160 71t-160 -71t-61 -185q0 -115 61 -188.5t160 -73.5t160 73.5t61 188.5z" />
    <glyph glyph-name="ellipsis" unicode="&#x2026;" horiz-adv-x="1536" 
d="M1366 82q0 41 -24 66.5t-62 25.5t-62 -25.5t-24 -66.5t24 -67.5t62 -26.5t62 26.5t24 67.5zM854 82q0 41 -24 66.5t-62 25.5t-62 -25.5t-24 -66.5t24 -67.5t62 -26.5t62 26.5t24 67.5zM342 82q0 41 -24 66.5t-62 25.5t-62 -25.5t-24 -66.5t24 -67.5t62 -26.5t62 26.5
t24 67.5z" />
    <glyph glyph-name="perthousand" unicode="&#x2030;" horiz-adv-x="1472" 
d="M1436 422q0 118 -20.5 213.5t-65 156t-107.5 60.5q-65 0 -109 -61.5t-62.5 -157.5t-18.5 -219q0 -118 20.5 -213.5t65.5 -156t108 -60.5q65 0 108.5 61.5t62 157t18.5 219.5zM985 422q0 118 -20 213t-64.5 156t-107.5 61q-65 0 -109 -61.5t-63 -157.5t-19 -219
q0 -118 21 -213.5t66 -156t108 -60.5q65 0 108.5 62t61.5 157t18 219zM838 1292q7 14 -7 19t-22 -11l-627 -1398q-7 -15 8 -21q14 -6 21 8zM420 782q0 118 -21 213.5t-66 156t-108 60.5q-65 0 -108.5 -62t-61.5 -157t-18 -219q0 -118 20 -213t64.5 -156t107.5 -61
q65 0 109 61.5t63 157.5t19 219zM1307 244q0 -11 -1 -35t-1.5 -37.5t-2 -36t-3.5 -36t-5 -31t-7.5 -28t-10.5 -21t-14.5 -15t-18.5 -4.5q-20 0 -33 21t-18 58t-7 71t-3 77v13q-6 175 0 350q0 10 1 30q1 33 2 51t3.5 48t6.5 47t10.5 35t17 26.5t24.5 8.5q20 0 32.5 -20.5
t17.5 -55.5t7 -71t3 -76v-17q6 -176 0 -352zM856 244q0 -12 -1 -35t-1.5 -37t-1.5 -36t-3 -36t-5 -31.5t-7.5 -28.5t-10.5 -21t-14.5 -14.5t-18.5 -4.5q-20 0 -33 21t-18.5 60t-7.5 72t-3 78v9q-6 175 0 350q0 9 1 27q1 33 2 51t3.5 48.5t6.5 47.5t11 36t17.5 27.5t24.5 8.5
q19 0 31.5 -20.5t17.5 -54t7 -70t3 -74.5v-21q6 -176 0 -352zM291 606q0 -9 -1 -27q-1 -33 -2 -51t-3.5 -48.5t-6.5 -47.5t-11 -36t-17.5 -27.5t-24.5 -8.5q-19 0 -31.5 20.5t-17.5 54t-7 70t-3 74.5v21q-6 176 0 352q0 12 1 35t1.5 37t1.5 36t3 36t5 31.5t7.5 28.5t10.5 21
t14.5 14.5t18.5 4.5q20 0 33 -21t18.5 -60t7.5 -72t3 -78v-3v-3v-3q6 -175 0 -350z" />
    <glyph glyph-name="guilsinglleft" unicode="&#x2039;" horiz-adv-x="358" 
d="M317 150q2 9 -10 12q-62 18 -90 54t-39 87q-10 44 -10 141q0 98 10 142q11 51 39 87t90 54q12 3 10 12q-3 14 -12 11q-110 -32 -187 -113t-77 -193t77 -192.5t187 -112.5q9 -3 12 11z" />
    <glyph glyph-name="guilsinglright" unicode="&#x203a;" horiz-adv-x="358" 
d="M317 444q0 112 -77 193t-187 113q-9 3 -12 -11q-2 -9 10 -12q62 -18 90 -54t39 -87q10 -44 10 -142q0 -97 -10 -141q-11 -51 -39 -87t-90 -54q-12 -3 -10 -12q3 -14 12 -11q110 32 187 112.5t77 192.5z" />
    <glyph glyph-name="fraction" unicode="&#x2044;" horiz-adv-x="307" 
d="M481 1292q7 14 -6 19q-14 5 -22 -11l-627 -1398q-7 -15 8 -21q14 -6 21 8z" />
    <glyph glyph-name="Euro" unicode="&#x20ac;" horiz-adv-x="624" 
d="M614 182q0 55 -26 82t-64 27q-40 0 -65 -29t-25 -69q0 -29 27.5 -69t27.5 -71q0 -24 -22.5 -40.5t-60.5 -16.5q-69 0 -100 79t-32 287q0 21 -1 63t-1 64h215q11 0 11 13q0 14 -11 14h-215q0 30 -1 89t-1 89h217q11 0 11 13q0 14 -11 14h-217q0 178 4 268q6 205 109 205
q43 0 65.5 -17.5t22.5 -39.5q0 -27 -25.5 -68.5t-25.5 -71.5q0 -41 26 -69.5t60 -28.5q35 0 61.5 28.5t26.5 80.5q0 72 -60 139t-149 67q-123 0 -194 -133t-87 -360h-79q-11 0 -11 -12q0 -15 11 -15h77q-2 -33 -2 -104q0 -12 1 -37t1 -37h-77q-11 0 -11 -12q0 -15 11 -15h77
q12 -247 86 -380.5t209 -133.5q90 0 153.5 66.5t63.5 140.5z" />
    <glyph glyph-name="trademark" unicode="&#x2122;" horiz-adv-x="1261" 
d="M1180 547q0 8 -13 8h-30q-11 0 -11 45v784q0 46 11 46h30q13 0 13 8t-13 8h-166q-14 0 -16 -12l-106 -674h-2l-119 674q-2 12 -17 12h-176q-10 0 -10 -8t10 -8h45q11 0 11 -44v-542q0 -84 -2.5 -141t-6 -86t-11 -43.5t-12 -16.5t-14.5 -2h-8q-10 0 -10 -8t10 -8h148
q10 0 10 8t-10 8h-19q-32 0 -44.5 61t-12.5 236v543h2l156 -858q4 -15 16 -15h33q11 0 14 15q133 835 135 858h2v-795q0 -45 -10 -45h-31q-12 0 -12 -8t12 -8h211q13 0 13 8zM498 1145v291q0 10 -11 10h-436q-10 0 -10 -10v-291q0 -10 8 -10q10 0 10 10v37q0 38 4.5 74
t16 78t37.5 67.5t63 25.5h15q10 0 10 -4v-823q0 -45 -10 -45h-31q-12 0 -12 -8t12 -8h211q12 0 12 8t-12 8h-31q-10 0 -10 45v823q0 4 10 4h12q37 0 63.5 -25.5t38.5 -67t16.5 -78.5t4.5 -74v-37q0 -10 8 -10q11 0 11 10z" />
    <glyph glyph-name="minus" unicode="&#x2212;" horiz-adv-x="798" 
d="M737 582q0 18 -24 18h-625q-27 0 -27 -20q0 -19 27 -19h625q24 0 24 21z" />
    <glyph glyph-name="uniFB00" unicode="&#xfb00;" horiz-adv-x="716" 
d="M801 1331q0 61 -53.5 100t-116.5 39q-79 0 -129 -53q-63 53 -152 53q-63 0 -113 -28t-79.5 -74t-44.5 -101t-15 -114v-276q0 -15 -18 -15h-41q-19 0 -19 -10t19 -10h41q18 0 18 -13v-729q0 -46 -3.5 -64t-14.5 -18h-41q-14 0 -14 -8q0 -10 14 -10h256q14 0 14 10
q0 8 -14 8h-41q-11 0 -14.5 18t-3.5 64v729q0 13 18 13h147q19 0 19 -13v-729q0 -45 -4 -63.5t-15 -18.5h-41q-14 0 -14 -8q0 -10 14 -10h285q14 0 14 10q0 8 -14 8h-70q-11 0 -14.5 18t-3.5 64v729q0 13 18 13h111q19 0 19 10t-19 10h-111q-18 0 -18 15v518q0 59 61 59
q22 0 36 -10t14 -25q0 -12 -17.5 -38t-17.5 -54q0 -35 26 -57.5t60 -22.5q36 0 59 23t23 61zM420 877q0 -15 -19 -15h-147q-18 0 -18 15v487q0 45 29.5 67.5t76.5 22.5q90 0 90 -53q0 -17 -18.5 -50t-18.5 -63q0 -38 29 -61q-4 -46 -4 -74v-276z" />
    <glyph glyph-name="uniFB01" unicode="&#xfb01;" horiz-adv-x="655" 
d="M631 10q0 8 -15 8h-41q-11 0 -14.5 18t-3.5 64v752q0 10 -16 10h-287q-18 0 -18 15v487q0 45 29.5 67.5t76.5 22.5q90 0 90 -53q0 -17 -18.5 -50t-18.5 -63q0 -35 25.5 -58.5t60.5 -23.5t58.5 25t23.5 65q0 73 -63.5 123.5t-149.5 50.5q-63 0 -113 -28t-79.5 -74
t-44.5 -101t-15 -114v-276q0 -15 -18 -15h-41q-19 0 -19 -10t19 -10h41q18 0 18 -13v-729q0 -46 -3.5 -64t-14.5 -18h-41q-14 0 -14 -8q0 -10 14 -10h256q14 0 14 10q0 8 -14 8h-41q-11 0 -14.5 18t-3.5 64v729q0 13 18 13h147q11 0 15 -18.5t4 -63.5v-660q0 -45 -4 -63.5
t-15 -18.5h-41q-14 0 -14 -8q0 -10 14 -10h256q15 0 15 10z" />
    <glyph glyph-name="uniFB02" unicode="&#xfb02;" horiz-adv-x="655" 
d="M631 10q0 8 -15 8h-41q-11 0 -14.5 18t-3.5 64v1336q0 10 -16 10h-92q-46 24 -99 24q-63 0 -113 -28t-79.5 -74t-44.5 -101t-15 -114v-276q0 -15 -18 -15h-41q-19 0 -19 -10t19 -10h41q18 0 18 -13v-729q0 -46 -3.5 -64t-14.5 -18h-41q-14 0 -14 -8q0 -10 14 -10h256
q14 0 14 10q0 8 -14 8h-41q-11 0 -14.5 18t-3.5 64v729q0 13 18 13h111q18 0 18 10t-18 10h-111q-18 0 -18 15v487q0 45 29.5 67.5t76.5 22.5q90 0 90 -53q0 -17 -18.5 -50t-18.5 -63q0 -32 25 -57v-1131q0 -45 -4 -63.5t-15 -18.5h-41q-14 0 -14 -8q0 -10 14 -10h256
q15 0 15 10z" />
    <glyph glyph-name="uniFB03" unicode="&#xfb03;" horiz-adv-x="976" 
d="M952 10q0 8 -14 8h-41q-11 0 -14.5 18t-3.5 64v752q0 10 -17 10h-287q-18 0 -18 15v487q0 45 30 67.5t77 22.5q90 0 90 -53q0 -17 -18.5 -50t-18.5 -63q0 -35 25.5 -58.5t60.5 -23.5t58.5 25t23.5 65q0 73 -63.5 123.5t-149.5 50.5q-97 0 -160 -63q-12 -15 -33 -7
t-39 23.5t-43.5 31t-46.5 15.5q-63 0 -113 -28t-79.5 -74t-44.5 -101t-15 -114v-276q0 -15 -18 -15h-41q-19 0 -19 -10t19 -10h41q18 0 18 -13v-729q0 -46 -3.5 -64t-14.5 -18h-41q-14 0 -14 -8q0 -10 14 -10h256q14 0 14 10q0 8 -14 8h-41q-11 0 -14.5 18t-3.5 64v729
q0 13 18 13h147q19 0 19 -13v-729q0 -45 -4 -63.5t-15 -18.5h-41q-14 0 -14 -8q0 -10 14 -10h256q15 0 15 10q0 8 -15 8h-41q-11 0 -14.5 18t-3.5 64v729q0 13 18 13h148q11 0 14.5 -18t3.5 -64v-660q0 -46 -3.5 -64t-14.5 -18h-41q-14 0 -14 -8q0 -10 14 -10h256
q14 0 14 10zM420 877q0 -15 -19 -15h-147q-18 0 -18 15v487q0 45 29.5 67.5t76.5 22.5q90 0 90 -53q0 -17 -18.5 -50t-18.5 -63q0 -37 31 -61q-6 -37 -6 -74v-276z" />
    <glyph glyph-name="uniFB04" unicode="&#xfb04;" horiz-adv-x="976" 
d="M952 10q0 8 -14 8h-41q-11 0 -14.5 18t-3.5 64v1336q0 10 -17 10h-92q-46 24 -98 24q-97 0 -160 -63q-12 -15 -33 -7t-39 23.5t-43.5 31t-46.5 15.5q-63 0 -113 -28t-79.5 -74t-44.5 -101t-15 -114v-276q0 -15 -18 -15h-41q-19 0 -19 -10t19 -10h41q18 0 18 -13v-729
q0 -46 -3.5 -64t-14.5 -18h-41q-14 0 -14 -8q0 -10 14 -10h256q14 0 14 10q0 8 -14 8h-41q-11 0 -14.5 18t-3.5 64v729q0 13 18 13h147q19 0 19 -13v-729q0 -45 -4 -63.5t-15 -18.5h-41q-14 0 -14 -8q0 -10 14 -10h256q15 0 15 10q0 8 -15 8h-41q-11 0 -14.5 18t-3.5 64v729
q0 13 18 13h111q19 0 19 10t-19 10h-111q-18 0 -18 15v487q0 45 30 67.5t77 22.5q90 0 90 -53q0 -17 -18.5 -50t-18.5 -63q0 -33 24 -57v-1131q0 -46 -3.5 -64t-14.5 -18h-41q-14 0 -14 -8q0 -10 14 -10h256q14 0 14 10zM420 877q0 -15 -19 -15h-147q-18 0 -18 15v487
q0 45 29.5 67.5t76.5 22.5q90 0 90 -53q0 -17 -18.5 -50t-18.5 -63q0 -37 31 -61q-6 -37 -6 -74v-276z" />
  </font>
</defs>
</svg>
