<?xml version="1.0" standalone="no"?>
<!DOCTYPE svg PUBLIC "-//W3C//DTD SVG 1.1//EN" "http://www.w3.org/Graphics/SVG/1.1/DTD/svg11.dtd" >
<svg xmlns="http://www.w3.org/2000/svg" xmlns:xlink="http://www.w3.org/1999/xlink" version="1.1">
<metadata>
Created by FontForge 20170731 at Tue Jun 13 11:42:19 2023
 By Aleksey,,,
</metadata>
<defs>
<font id="MinionPro-It" horiz-adv-x="400" >
  <font-face 
    font-family="Minion Pro"
    font-weight="400"
    font-style="italic"
    font-stretch="normal"
    units-per-em="1000"
    panose-1="2 4 5 3 5 3 6 9 2 3"
    ascent="727"
    descent="-273"
    x-height="449"
    cap-height="649"
    bbox="-201 -360 1684 1002"
    underline-thickness="50"
    underline-position="-100"
    slope="-12"
    unicode-range="U+000D-FB06"
  />
<missing-glyph horiz-adv-x="500" 
d="M0 0v700h500v-700h-500zM250 395l170 255h-340zM280 350l170 -255v510zM80 50h340l-170 255zM50 605v-510l170 255z" />
    <glyph glyph-name="T_h" unicode="Th" horiz-adv-x="1033" 
d="M986 107l12 -23q-38 -43 -80 -69.5t-65 -26.5q-37 0 -16 96l54 235q16 68 -8 68q-31 0 -101.5 -66t-107.5 -129q-24 -95 -39 -185q-39 -7 -71 -19l-8 8q75 336 128 610q-101 9 -174 9h-67l-101 -485q-8 -36 -9 -53.5t9 -29t27 -14.5t55 -6l-6 -27h-277l6 27
q64 5 80.5 20.5t31.5 82.5l106 485h-72q-61 0 -87 -7t-41 -24q-22 -27 -50 -88h-30q32 103 47 178h21q7 -16 16 -20.5t30 -4.5h387q66 0 85.5 3.5t25.5 15.5l4 20q48 25 70 25q12 0 5 -33l-91 -417h2q86 111 188 166q39 20 64 20q55 0 30 -110l-55 -241q-9 -36 2 -36
q8 0 29 13t41 32z" />
    <glyph glyph-name="Tcaron_h" unicode="&#x164;h" horiz-adv-x="1033" 
d="M986 107l12 -23q-38 -43 -80 -69.5t-65 -26.5q-37 0 -16 96l54 235q16 68 -8 68q-31 0 -101.5 -66t-107.5 -129q-24 -95 -39 -185q-39 -7 -71 -19l-8 8q75 336 128 610q-101 9 -174 9h-67l-101 -485q-8 -36 -9 -53.5t9 -29t27 -14.5t55 -6l-6 -27h-277l6 27
q64 5 80.5 20.5t31.5 82.5l106 485h-72q-61 0 -87 -7t-41 -24q-22 -27 -50 -88h-30q32 103 47 178h21q7 -16 16 -20.5t30 -4.5h387q66 0 85.5 3.5t25.5 15.5l4 20q48 25 70 25q12 0 5 -33l-91 -417h2q86 111 188 166q39 20 64 20q55 0 30 -110l-55 -241q-9 -36 2 -36
q8 0 29 13t41 32zM550 813l13 -22q-82 -55 -135 -104h-25q-37 45 -104 104l19 22q47 -21 106 -58q73 39 126 58z" />
    <glyph glyph-name="uni021A_h" unicode="&#x21a;h" horiz-adv-x="1033" 
d="M986 107l12 -23q-38 -43 -80 -69.5t-65 -26.5q-37 0 -16 96l54 235q16 68 -8 68q-31 0 -101.5 -66t-107.5 -129q-24 -95 -39 -185q-39 -7 -71 -19l-8 8q75 336 128 610q-101 9 -174 9h-67l-101 -485q-8 -36 -9 -53.5t9 -29t27 -14.5t55 -6l-6 -27h-277l6 27
q64 5 80.5 20.5t31.5 82.5l106 485h-72q-61 0 -87 -7t-41 -24q-22 -27 -50 -88h-30q32 103 47 178h21q7 -16 16 -20.5t30 -4.5h387q66 0 85.5 3.5t25.5 15.5l4 20q48 25 70 25q12 0 5 -33l-91 -417h2q86 111 188 166q39 20 64 20q55 0 30 -110l-55 -241q-9 -36 2 -36
q8 0 29 13t41 32zM278 -29q24 0 41 -18t18 -47q0 -48 -35.5 -76t-82.5 -38l-8 27q33 13 50 26t17 32q0 24 -35 35q-12 3 -12 19q0 17 13.5 28.5t33.5 11.5z" />
    <glyph glyph-name="f_b" unicode="fb" horiz-adv-x="757" 
d="M330 433l-19 -31l-100 -9q-39 -221 -51 -281q-25 -126 -53.5 -194t-71.5 -113q-58 -62 -111 -62q-21 0 -40.5 12.5t-19.5 29.5q0 22 28 44q10 9 19 0q25 -25 60 -25q24 0 41 20q33 38 70 256l24 150l28 164h-81l-3 11l29 28h63q26 134 98 207q30 30 72 51t75 21
q49 0 79 -25q50 25 65 25q11 0 4 -30q-52 -217 -86 -377h2q60 70 118.5 107t96.5 37q33 0 52 -29.5t19 -80.5q0 -82 -43.5 -166.5t-108.5 -128.5q-83 -56 -153 -56q-24 0 -46.5 12t-33.5 31q-23 36 -5 127q56 271 100 462q-33 52 -85 52q-50 0 -85.5 -55.5t-57.5 -183.5h111
zM619 392q-30 0 -77.5 -37.5t-102.5 -111.5q-10 -30 -18 -82q-23 -125 61 -125q30 0 55 15q46 28 81.5 105.5t35.5 165.5q0 70 -35 70z" />
    <glyph glyph-name="f_f_b" unicode="ffb" horiz-adv-x="1019" 
d="M591 433l-19 -32l-98 -8q-40 -231 -42 -241q-25 -136 -57.5 -206t-84.5 -117q-31 -29 -71 -45t-70 -16q-67 0 -107 45q-68 -70 -123 -70q-21 0 -39 11t-18 27q2 21 22 37q17 19 29 11q32 -22 57 -22q26 0 43 21q35 45 66 240l54 325h-84l-3 11l29 29h65q26 113 88 176
q33 34 81 56.5t92 22.5q70 0 101 -47q33 33 73.5 52t75.5 19q48 0 78 -25q50 25 65 25q12 0 4 -30q-52 -217 -86 -377h2q61 70 118.5 107t94.5 37q34 0 53.5 -30t19.5 -80q0 -82 -44 -167t-109 -129q-82 -55 -152 -55q-24 0 -46.5 12t-33.5 31q-23 37 -5 127l100 461
q-14 24 -38 39t-49 15q-50 -1 -85 -56t-56 -184h109zM882 392q-28 0 -76.5 -38t-103.5 -111q-10 -30 -18 -82q-23 -126 60 -126q27 0 54 16q47 28 83 105.5t36 165.5q0 70 -35 70zM217 433h188q19 101 59 160q-33 55 -100 55q-56 0 -91 -49.5t-56 -165.5zM397 393h-188
q-44 -255 -50 -283q-35 -172 -82 -245q18 -20 47 -33.5t55 -13.5q62 0 92 38q42 46 78 246z" />
    <glyph glyph-name="f_f_h" unicode="ffh" horiz-adv-x="1055" 
d="M1010 108l11 -24q-39 -43 -80.5 -69.5t-63.5 -26.5q-37 0 -16 96l54 235q16 68 -8 68q-31 0 -101 -65.5t-109 -129.5q-30 -132 -39 -185q-36 -6 -71 -19l-7 8q59 264 131 625q-35 52 -89 52q-50 0 -84 -55.5t-56 -184.5h110l-20 -32l-97 -8l-21 -119l-23 -126
q-25 -132 -58 -202t-84 -117q-31 -30 -70 -45.5t-70 -15.5q-67 0 -108 45q-28 -30 -61 -50t-60 -20q-21 0 -39.5 10.5t-18.5 26.5q0 21 22 41q14 16 29 7q35 -22 57 -22q25 0 43 22q33 44 66 241l54 324h-83l-4 11l29 29h65q25 109 89 175q33 35 80.5 57.5t91.5 22.5
q68 0 103 -44q29 31 71 49.5t78 18.5q46 0 79 -26q49 26 62 26q11 -1 4 -29l-90 -423h2q92 120 190 169q37 20 63 20q55 0 30 -110l-56 -240q-5 -22 -4.5 -29t6.5 -8q19 -2 71 46zM217 433h188q19 101 61 162q-32 53 -99 53q-59 0 -94 -50t-56 -165zM397 393h-188
q-36 -210 -51 -283q-35 -173 -80 -245q17 -20 46.5 -34t56.5 -14q58 0 89 39q46 56 79 246z" />
    <glyph glyph-name="f_f_j" unicode="ffj" horiz-adv-x="764" 
d="M73 433h65q26 111 91 177q32 33 79.5 55.5t92.5 22.5q69 0 102 -44q68 68 149 68q52 0 77.5 -23t25.5 -44q0 -14 -9.5 -27t-25.5 -19q-31 -12 -39 14q-16 61 -62 61q-99 0 -141 -241h118q59 0 127 13q17 -11 5 -71q-18 -83 -57 -284q-39 -185 -119 -261q-64 -63 -107 -63
q-16 0 -29.5 9t-13.5 22q0 23 25 44q11 11 21 4q24 -14 48 -14q44 0 69 109q18 76 79 391q8 40 0.5 51t-45.5 11h-127l-43 -239q-25 -140 -56.5 -209.5t-84.5 -117.5q-31 -28 -69.5 -44.5t-66.5 -16.5q-65 0 -112 46q-27 -30 -61.5 -50t-61.5 -20q-20 0 -37.5 9.5
t-17.5 24.5q0 20 22 40q14 16 29 9q31 -21 55 -21q25 0 43 23q31 38 64 240l55 327h-82l-3 9zM213 433h188q22 105 64 164q-33 51 -97 51q-59 0 -96 -50t-59 -165zM394 395h-188q-8 -43 -23.5 -136.5t-26.5 -147.5q-32 -174 -80 -247q16 -20 45 -33t58 -13q61 0 92 39
q40 45 73 234z" />
    <glyph glyph-name="f_f_k" unicode="ffk" horiz-adv-x="1006" 
d="M699 236q26 31 86 91q118 122 175 122q20 0 31 -9.5t11 -21.5q0 -20 -20 -40q-10 -8 -16 -5q-18 8 -38 8q-56 0 -129 -84q25 -88 81 -195q25 -49 39 -49q20 0 58 47l17 -21q-58 -91 -110 -91q-17 0 -32.5 14t-33.5 52q-42 89 -76 186q-45 -49 -56 -67q-18 -83 -33 -166
q-47 -9 -72 -19l-6 6q83 369 137 631q-33 47 -88 47q-50 0 -84.5 -53t-57.5 -186h110l-20 -32l-97 -8q-40 -232 -42 -241q-27 -137 -58.5 -206.5t-82.5 -115.5q-31 -29 -72 -45.5t-70 -16.5q-66 0 -109 45q-27 -30 -61 -50t-60 -20q-21 0 -39 10t-18 26q0 18 23 39
q14 17 28 8q34 -21 56 -21q25 0 44 22q33 43 65 240l54 326h-83l-3 11l28 29h65q24 108 90 176q33 34 80.5 56.5t91.5 22.5q67 0 102 -44q31 30 73 49t75 19q49 0 80 -26q49 26 62 26q11 0 5 -27zM218 433h187q21 105 60 163q-33 51 -99 51q-57 0 -92 -49t-56 -165zM397 393
h-187l-50 -282q-35 -174 -80 -248q17 -20 46 -33t56 -13q59 0 90 40q12 14 21.5 30.5t25 70t29.5 137.5q31 179 49 298z" />
    <glyph glyph-name="f_f_t" unicode="fft" horiz-adv-x="826" 
d="M858 433l-26 -35l-101 -5l-58 -275q-13 -60 6 -60q13 0 42.5 19.5t47.5 38.5l13 -23q-29 -35 -77 -70.5t-82 -35.5q-50 0 -22 133l59 273h-186q-40 -220 -46 -250q-24 -129 -55 -196.5t-82 -115.5q-32 -30 -72.5 -46.5t-71.5 -16.5q-67 0 -107 44q-67 -69 -122 -69
q-21 0 -39 11.5t-18 27.5q2 23 22 41q17 15 29 6q32 -22 57 -22q26 0 44 21q34 44 66 238l53 327h-83l-4 10l29 30h66q22 106 87 172q33 35 82 59t93 24q67 0 98 -47q31 33 69.5 52t73.5 19q26 0 44 -14t18 -29q0 -25 -26 -44q-15 -10 -23 0q-34 37 -72 37q-66 2 -103 -229
h188l19 78l75 63l9 -7l-31 -134h117zM217 433h187q18 100 57 160q-31 54 -97 54q-57 0 -92.5 -52t-54.5 -162zM396 393h-187q-6 -31 -22 -125.5t-28 -157.5q-32 -172 -80 -246q14 -20 42.5 -33.5t55.5 -13.5q61 0 91 38q43 45 78 239q20 108 50 299z" />
    <glyph glyph-name="f_h" unicode="fh" horiz-adv-x="789" 
d="M745 108l13 -24q-39 -43 -81 -69.5t-64 -26.5q-37 0 -16 96l54 233q8 38 6 54t-15 16q-31 0 -100.5 -65.5t-107.5 -128.5q-29 -127 -40 -186q-38 -7 -71 -19l-7 8q51 224 131 626q-30 48 -89 48q-50 0 -84 -53t-57 -184h111l-20 -30l-98 -10q-36 -212 -51 -283
q-26 -125 -55 -193t-73 -113q-57 -61 -112 -61q-21 0 -40 12.5t-19 29.5q0 21 27 44q10 9 20 0q27 -27 59 -27q25 0 42 20q36 37 72 252l53 321h-82l-3 10l29 28h64q25 130 99 205q31 32 73 53t77 21q47 0 77 -25q50 25 62 25t6 -29l-90 -421h2q88 113 188 167q37 20 65 20
q54 0 29 -110l-56 -241q-7 -36 2 -36q20 0 70 46z" />
    <glyph glyph-name="f_j" unicode="fj" horiz-adv-x="501" 
d="M76 433h61q32 145 109 215q70 64 145 64q51 0 74 -22t23 -44q0 -37 -34 -45q-32 -12 -37 11q-14 63 -61 63q-98 0 -141 -242h111q84 0 131 13q19 0 4 -79l-55 -276q-39 -185 -118 -260q-67 -64 -107 -64q-16 0 -30 9.5t-14 22.5q0 22 25 45q12 10 22 4q26 -15 49 -15
q22 0 37 23.5t30 84.5q17 68 79 388q9 41 2.5 53.5t-42.5 12.5h-132q-38 -206 -52 -271q-29 -134 -56 -202t-69 -113q-61 -66 -117 -66q-21 0 -39 11.5t-17 27.5q0 20 28 45q10 7 19 0q26 -22 56 -22q27 0 43 18q34 36 71 254l55 318h-78l-3 10z" />
    <glyph glyph-name="f_k" unicode="fk" horiz-adv-x="747" 
d="M437 238l85 91q120 120 176 120q19 0 30 -9.5t11 -21.5q0 -22 -19 -39q-9 -9 -16 -6q-14 7 -38 7q-56 0 -131 -83q31 -103 83 -195q24 -49 39 -49q19 0 58 47l17 -21q-58 -91 -110 -91q-17 0 -32.5 14t-33.5 52q-46 98 -78 186q-46 -49 -54 -65q-17 -75 -33 -168
q-47 -9 -72 -19l-6 6l138 630q-15 22 -39.5 35.5t-49.5 13.5q-50 0 -85.5 -55.5t-58.5 -184.5h110l-20 -32l-98 -10q-44 -246 -51 -281q-26 -125 -55 -192t-72 -113q-58 -62 -112 -62q-21 0 -40.5 12.5t-19.5 29.5q0 22 27 44q10 7 20 0q29 -25 59 -25q25 0 41 19
q36 42 73 251l54 319h-83l-3 10l30 30h64q26 133 99 206q31 31 73 52t76 21q49 0 79 -25q50 25 62 25t5 -28z" />
    <glyph glyph-name="f_t" unicode="ft" horiz-adv-x="567" 
d="M598 433l-27 -35l-100 -5l-58 -275q-14 -59 5 -59q13 0 42 18.5t47 37.5l14 -22q-30 -36 -77.5 -71t-82.5 -35q-13 0 -20.5 11.5t-9.5 41t10 80.5l58 273h-188l-49 -268q-27 -136 -54.5 -205t-69.5 -113q-60 -64 -114 -64q-22 0 -40 12t-18 28q0 21 29 46q9 9 19 0
q31 -24 58 -24q25 0 42 19q31 33 68 254l52 315h-79l-3 11l29 29h61q25 132 95 204q71 75 142 75q27 0 45 -15t17 -30q0 -25 -27 -44q-13 -10 -22 0q-35 37 -70 37q-34 0 -58.5 -52.5t-45.5 -174.5h190l19 80l75 63l9 -7l-31 -136h118z" />
    <glyph glyph-name="longs_b" unicode="&#x17f;b" horiz-adv-x="713" 
d="M409 306h2q61 70 118 106.5t94 36.5q33 0 52.5 -29.5t19.5 -79.5q0 -83 -42.5 -168t-107.5 -129q-83 -55 -151 -55q-25 0 -48 12t-34 31q-22 39 -4 127l99 466q-12 22 -33.5 35.5t-43.5 13.5q-30 0 -53.5 -23t-48 -95t-44.5 -196q-29 -182 -47 -273
q-22 -113 -49.5 -175.5t-70.5 -106.5q-59 -61 -114 -61q-22 0 -41.5 14t-19.5 30q0 21 27 43q11 10 20 1q31 -27 62 -27q24 0 44 20q33 31 67 254q28 183 42 266q36 204 112 289q27 35 67.5 57t75.5 22q44 0 72 -24q41 24 59 24q13 0 5 -29q-55 -233 -86 -377zM578 392
q-28 0 -77 -38.5t-102 -110.5q-10 -35 -18 -81q-12 -67 6.5 -97.5t55.5 -30.5q25 0 52 16q46 27 81.5 105.5t35.5 166.5q0 70 -34 70z" />
    <glyph glyph-name="longs_h" unicode="&#x17f;h" horiz-adv-x="751" 
d="M707 108l12 -24q-39 -43 -80.5 -69.5t-64.5 -26.5q-37 0 -16 96l54 235q9 38 7 53.5t-15 15.5q-31 0 -100 -66t-106 -130q-19 -76 -40 -185q-36 -6 -71 -19l-7 8q69 301 132 627q-12 23 -34 36.5t-45 13.5q-31 0 -55 -23t-49.5 -95.5t-44.5 -195.5q-23 -156 -47 -273
q-22 -114 -49 -176t-70 -105q-59 -62 -115 -62q-22 0 -42 14t-19 30q0 21 26 42q12 10 21 1q28 -26 62 -26q23 0 44 19q33 33 67 255q34 225 41 265q35 201 113 290q27 34 70 56.5t77 22.5q44 0 72 -24q37 24 58 24q12 0 6 -27l-90 -422h2q88 113 186 166q37 20 63 20
q55 0 30 -110l-55 -241q-8 -35 2 -36q20 0 70 46z" />
    <glyph glyph-name="longs_i" unicode="&#x17f;i" horiz-adv-x="494" 
d="M358 712q50 0 72.5 -21.5t21.5 -43.5q0 -31 -35 -44q-29 -11 -35 12q-10 58 -57 58q-28 -1 -50.5 -23.5t-46 -91.5t-42.5 -186q-39 -232 -52 -296q-23 -110 -49.5 -169t-69.5 -102q-61 -62 -115 -62q-22 0 -42 14t-19 30q0 20 26 42q12 10 21 2q29 -27 62 -27q26 0 44 20
q34 34 68 248q33 205 44 267q36 208 114 297q66 76 140 76zM448 109l12 -21q-27 -33 -73.5 -66.5t-72.5 -33.5q-38 0 -13 98l63 256q9 32 0 32q-15 0 -69 -43l-12 24q41 39 85.5 66.5t65.5 27.5q31 0 11 -79l-70 -275q-8 -33 2 -33q17 0 71 47z" />
    <glyph glyph-name="longs_k" unicode="&#x17f;k" horiz-adv-x="711" 
d="M400 239l2 -1q26 31 85 90q119 121 175 121q19 0 30 -9.5t11 -21.5q0 -22 -19 -39q-8 -8 -16 -6q-13 8 -37 8q-57 0 -131 -82q29 -95 82 -197q25 -49 39 -49q17 0 57 46l17 -20q-58 -91 -109 -91q-17 0 -32.5 14t-33.5 52q-40 86 -76 187q-43 -44 -56 -67
q-18 -79 -33 -167q-45 -9 -72 -19l-6 6l138 632q-25 47 -78 47q-32 0 -57 -23.5t-50 -95.5t-45 -196q-28 -177 -48 -276q-22 -111 -49 -172t-70 -105q-59 -62 -115 -62q-22 0 -41.5 14t-19.5 30q0 21 26 42q12 10 21 1q28 -26 61 -26q25 0 44 19q33 31 68 255q27 179 43 263
q37 204 114 291q29 35 69 57.5t73 22.5q48 0 76 -24q39 24 58 24q11 0 6 -26z" />
    <glyph glyph-name="longs_l" unicode="&#x17f;l" horiz-adv-x="492" 
d="M459 117l14 -22q-36 -45 -82 -76t-71 -31q-41 0 -15 121l108 513q-29 51 -77 51q-49 0 -86 -66t-63 -240q-27 -172 -48 -280q-22 -115 -49 -176t-70 -105q-62 -63 -115 -63q-22 0 -42 14t-20 30q0 19 27 42q12 10 21 1q27 -27 62 -27q23 0 43 20q33 31 67 251
q35 227 41 259q37 213 115 301q28 34 68.5 56t73.5 22q46 0 73 -25q40 25 59 25q12 0 6 -27l-124 -585q-8 -38 4 -38q9 0 34 17t46 38z" />
    <glyph glyph-name="longs_longs" unicode="&#x17f;&#x17f;" horiz-adv-x="482" 
d="M603 712q24 0 41.5 -14.5t16.5 -28.5q-2 -25 -26 -42q-14 -10 -26 2q-28 31 -59 31q-34 0 -58.5 -58t-49.5 -224q-30 -194 -43 -260q-23 -117 -53 -182t-81 -111q-63 -57 -135 -57q-62 0 -104 46q-66 -71 -125 -71q-21 0 -39 11.5t-19 26.5q0 19 22 39q18 14 26 9
q31 -25 58 -25q23 0 44 19q36 36 69 250q26 179 36 235q36 218 127 309q71 71 147 71q71 0 100 -44q70 68 131 68zM162 -183q58 0 85 35q42 49 75 249l39 248q28 173 75 245q-16 24 -41.5 39t-52.5 15q-37 0 -64 -24.5t-54 -99t-47 -202.5q-29 -188 -41 -250
q-28 -145 -72 -208q14 -19 42 -33t56 -14z" />
    <glyph glyph-name="longs_longs_i" unicode="&#x17f;&#x17f;i" horiz-adv-x="751" 
d="M610 712q48 0 71.5 -22.5t22.5 -43.5q2 -31 -34 -44q-29 -11 -35 12q-15 58 -58 58q-44 -1 -76 -68t-59 -233q-30 -190 -42 -248q-22 -117 -54 -184t-84 -115q-60 -56 -131 -56q-62 0 -104 46q-64 -71 -124 -71q-20 0 -39 12t-20 28q0 19 22 39q15 13 25 8q32 -26 60 -26
q23 0 42 19q33 31 69 248l40 237q36 217 128 309q28 29 68.5 50t78.5 21q66 0 97 -45q67 69 136 69zM161 -184q55 0 84 37q46 53 78 251q21 123 36 228q27 174 80 261q-35 56 -91 56q-36 0 -64 -25.5t-56.5 -104t-49.5 -212.5q-18 -115 -41 -233q-28 -142 -73 -210
q14 -20 41.5 -34t55.5 -14zM703 110l13 -22q-27 -33 -73.5 -66.5t-71.5 -33.5q-38 0 -14 98l64 256q7 31 -1 31q-19 0 -69 -42l-12 24q40 39 84.5 66.5t65.5 27.5q32 0 12 -77l-69 -277q-9 -33 1 -33q18 0 70 48z" />
    <glyph glyph-name="longs_longs_l" unicode="&#x17f;&#x17f;l" horiz-adv-x="755" 
d="M717 117l14 -22q-37 -45 -83 -76t-70 -31q-41 0 -15 121l108 512q-30 53 -81 52q-51 0 -87 -67t-63 -251q-24 -156 -41 -243q-21 -113 -51 -177.5t-82 -109.5q-61 -57 -133 -57q-63 0 -106 46q-27 -31 -61 -51t-63 -20q-21 0 -39.5 12t-19.5 28q0 20 22 40q18 14 26 8
q32 -26 60 -26q24 0 43 19q34 32 67 250q33 216 36 232q36 222 127 313q28 28 69.5 48.5t80.5 20.5q67 0 102 -45q26 29 65.5 49t74.5 20q43 0 74 -26q34 26 59 26q12 0 7 -26l-124 -586q-8 -39 3 -39q9 0 35.5 17.5t45.5 38.5zM346 648q-27 0 -49 -13.5t-44.5 -49.5
t-42 -106t-35.5 -175q-22 -142 -39 -227q-32 -156 -70 -213q36 -47 99 -47q54 0 83 38q44 51 73 235l37 232q29 182 81 272q-35 54 -93 54z" />
    <glyph glyph-name="f_f" unicode="ff" horiz-adv-x="530" 
d="M76 433h65q25 112 88 175q34 34 83 57t96 23q64 0 97 -42q69 66 133 66q24 0 41.5 -13.5t16.5 -28.5q0 -22 -25 -42q-14 -11 -27 1q-27 30 -61 30t-56.5 -46.5t-43.5 -179.5h111l-19 -30l-99 -8l-21 -117l-23 -127q-25 -133 -57 -203t-84 -118q-31 -29 -71.5 -45.5
t-69.5 -16.5q-70 0 -113 42q-63 -67 -117 -67q-22 0 -40.5 11t-18.5 27q0 18 23 39q16 16 28 8q29 -22 57 -22q26 0 42 22q35 42 69 239l54 328h-83l-3 11zM218 433h188q18 104 60 164q-14 22 -40.5 35.5t-56.5 13.5q-65 0 -98 -51t-53 -162zM398 395h-188
q-37 -217 -50 -282q-33 -170 -83 -251q15 -19 45 -31.5t57 -12.5q63 0 93 38q45 52 76 239z" />
    <glyph glyph-name="f_f_i" unicode="ffi" horiz-adv-x="791" 
d="M743 111l13 -22q-26 -33 -75 -67t-75 -34q-40 0 -16 104q24 94 55 236q10 44 2.5 55t-47.5 11h-124q-38 -217 -43 -239q-26 -138 -59.5 -211t-90.5 -121q-28 -26 -64.5 -41t-65.5 -15q-65 0 -107 45q-24 -28 -59 -48.5t-64 -20.5q-22 0 -41 11t-18 27q0 19 24 41
q15 15 27 6q30 -22 57 -22q26 0 43 21q32 42 65 242l54 326h-83l-3 9l28 29h65q26 108 93 177q32 34 78.5 56t91.5 22q69 0 102 -44q66 68 150 68q51 0 76.5 -23.5t25.5 -44.5q0 -29 -33 -43q-35 -14 -41 13q-16 63 -63 63q-98 0 -139 -244h116q82 0 126 14q14 1 15 -21.5
t-8 -51.5l-64 -264q-11 -49 1 -49q9 0 32.5 15.5t42.5 34.5zM218 433h187q21 103 63 164q-14 23 -40.5 37.5t-55.5 14.5q-59 0 -96 -50.5t-58 -165.5zM399 395h-188l-25 -141l-25 -143q-32 -170 -78 -247q14 -20 42 -33t58 -13q59 0 88 39q45 52 76 231z" />
    <glyph glyph-name="f_f_l" unicode="ffl" horiz-adv-x="793" 
d="M594 433l-21 -31l-97 -9l-43 -239q-26 -141 -59.5 -213t-90.5 -119q-28 -25 -64.5 -40t-64.5 -15q-66 0 -111 45q-25 -29 -59.5 -49t-63.5 -20q-22 0 -40.5 10.5t-18.5 26.5q0 20 24 42q15 14 28 5q31 -22 56 -22q29 0 45 22q33 41 67 242l53 326h-83l-3 10l28 28h65
q24 109 90 176q32 34 79.5 56.5t93.5 22.5q67 0 103 -45q30 30 75 49.5t81 19.5q47 0 75 -24q46 24 57 24q13 0 3 -39q-74 -335 -119 -569q-9 -44 5 -44q8 0 32.5 17.5t42.5 36.5l15 -22q-35 -43 -81 -73.5t-70 -30.5q-42 0 -17 119l109 521q-30 43 -86 43q-108 0 -146 -238
h111zM218 433h188q20 104 61 164q-13 22 -40 36.5t-58 14.5q-57 0 -93 -48t-58 -167zM399 395h-188q-10 -53 -25 -144l-25 -141q-33 -176 -79 -245q16 -21 44 -34t58 -13q60 0 91 39q42 49 73 231q8 45 51 307z" />
    <glyph glyph-name="longs_t" unicode="&#x17f;t" horiz-adv-x="530" 
d="M361 712q38 0 59 -18.5t20 -36.5q-2 -28 -33 -43q-17 -10 -24 6q-9 20 -26 33t-38 13q-26 -1 -46 -21t-44.5 -90.5t-43.5 -193.5q-35 -215 -50 -285q-23 -110 -49.5 -169.5t-69.5 -102.5q-60 -61 -114 -61q-22 0 -42 13.5t-20 29.5q0 20 26 41q11 10 21 2q26 -26 62 -26
q23 0 43 20q34 34 68 249l41 252q40 221 119 309q29 34 67.5 56.5t73.5 22.5zM565 431l-26 -34l-100 -5l-58 -273q-13 -60 5 -60q13 0 42 19t47 39l14 -23q-30 -36 -77.5 -71t-82.5 -35q-48 0 -20 132l58 272h-75l-2 9l25 30h61l16 65l75 61l10 -6l-29 -120h117z" />
    <glyph glyph-name="f_i" unicode="fi" horiz-adv-x="531" 
d="M480 112l15 -21q-25 -33 -74 -68t-78 -35q-40 0 -17 98l57 243q10 43 3.5 54.5t-44.5 11.5h-131q-36 -205 -51 -273q-29 -133 -56.5 -200.5t-69.5 -112.5q-60 -66 -116 -66q-22 0 -40 12t-17 28q0 21 28 45q11 8 20 0q26 -22 57 -22q26 0 43 19q34 34 72 252l53 318h-79
l-3 11l29 27h61q30 143 108 214q71 65 145 65q50 0 73.5 -22t23.5 -43q0 -16 -10 -29t-26 -17q-29 -9 -34 12q-14 60 -62 60q-97 0 -141 -240h112q78 0 132 13q22 0 4 -72l-65 -268q-10 -45 3 -45q8 0 32 16.5t43 34.5z" />
    <glyph glyph-name="f_l" unicode="fl" horiz-adv-x="525" 
d="M330 433l-20 -31l-99 -9l-16 -93l-17 -98l-19 -97q-24 -121 -52 -187.5t-72 -111.5q-59 -63 -115 -63q-20 0 -38 12.5t-18 29.5q0 24 28 43q10 7 20 0q25 -23 57 -23q26 0 44 20q32 34 70 256q11 64 26.5 163.5t24.5 149.5h-80l-3 11l29 28h62q22 129 97 204q33 33 77 54
t81 21q49 0 74 -25q43 25 56 25q12 0 5 -29l-122 -583q-7 -39 5 -39q9 0 34 18t43 38l14 -22q-32 -44 -79 -75.5t-72 -31.5q-41 0 -14 127l107 513q-10 16 -32 29.5t-49 13.5q-61 0 -95.5 -62.5t-52.5 -175.5h111z" />
    <glyph glyph-name=".notdef" horiz-adv-x="500" 
d="M0 0v700h500v-700h-500zM250 395l170 255h-340zM280 350l170 -255v510zM80 50h340l-170 255zM50 605v-510l170 255z" />
    <glyph glyph-name=".null" horiz-adv-x="0" 
 />
    <glyph glyph-name=".null" horiz-adv-x="0" 
 />
    <glyph glyph-name="nonmarkingreturn" unicode="&#xd;" horiz-adv-x="333" 
 />
    <glyph glyph-name="glyph30" horiz-adv-x="500" 
d="M0 0v700h500v-700h-500zM250 395l170 255h-340zM280 350l170 -255v510zM80 50h340l-170 255zM50 605v-510l170 255z" />
    <glyph glyph-name="space" unicode=" " horiz-adv-x="229" 
 />
    <glyph glyph-name="exclam" unicode="!" horiz-adv-x="259" 
d="M223 664q27 0 38.5 -7t8.5 -22q0 -2 -21 -79l-101 -360q-4 -5 -16.5 -5t-14.5 5q27 246 37 359q4 38 9 81q5 28 60 28zM99 -12q-22 0 -36.5 15.5t-14.5 39.5q0 28 17.5 47t43.5 19q23 0 37.5 -16t14.5 -41q0 -29 -18.5 -46.5t-43.5 -17.5z" />
    <glyph glyph-name="quotedbl" unicode="&#x22;" horiz-adv-x="345" 
d="M234 710l8 -7q-10 -34 -36.5 -103.5t-47.5 -109.5l-30 -13q30 166 32 211zM389 710l8 -7q-10 -34 -37 -104t-47 -109l-30 -13q30 170 32 211z" />
    <glyph glyph-name="numbersign" unicode="#" horiz-adv-x="477" 
d="M484 455l-11 -59h-92l-41 -139h83l-12 -58h-88l-52 -178h-40l51 178h-110l-52 -178h-40l52 178h-96l13 58h100l41 139h-92l13 59h97l46 157h40l-46 -157h109l47 157h40l-46 -157h86zM341 396h-110l-41 -139h110z" />
    <glyph glyph-name="dollar" unicode="$" horiz-adv-x="477" 
d="M458 453l-29 -3q-6 117 -90 137l-44 -230l22 -14q55 -35 84 -71.5t29 -89.5q0 -79 -59 -127t-144 -52l-17 -84h-35l17 84q-53 3 -94 22t-57 38q0 69 -2 137l28 3q6 -39 18 -71.5t41.5 -61.5t71.5 -34l48 253l-21 14q-111 66 -110 152q0 76 57 120t138 45l15 76h36
l-15 -77q44 -2 118 -38q-2 -27 -6 -128zM263 375l41 214q-57 -1 -87 -33t-30 -74q0 -60 76 -107zM278 272l-44 -237q55 4 85.5 38t30.5 82q0 38 -16.5 63.5t-55.5 53.5z" />
    <glyph glyph-name="percent" unicode="%" horiz-adv-x="751" 
d="M661 631l-494 -658l-28 24l493 657zM379 498q0 -81 -50.5 -152.5t-126.5 -71.5q-54 0 -82 39t-28 97q0 82 50.5 153.5t126.5 71.5q55 0 82.5 -39.5t27.5 -97.5zM312 526q0 79 -48 79q-34 0 -59 -41.5t-35 -88t-10 -83.5q0 -89 47 -89q36 0 61.5 45.5t34.5 93.5t9 84z
M708 213q0 -81 -51 -153t-127 -72q-54 0 -82 39t-28 97q0 81 50.5 153t126.5 72q55 0 83 -39t28 -97zM640 240q0 80 -47 80q-26 0 -47.5 -24t-33.5 -59.5t-18 -70t-6 -60.5q0 -89 48 -89q27 0 48.5 26.5t33 64.5t17 72.5t5.5 59.5z" />
    <glyph glyph-name="ampersand" unicode="&#x26;" horiz-adv-x="762" 
d="M723 406h31q3 -18 3 -60q0 -31 -4.5 -53.5t-10.5 -34.5t-14.5 -19t-14 -8.5t-11.5 -1.5q-18 0 -48 22q-5 4 -29 21.5t-35 24.5q-34 -128 -95 -198q-95 -111 -221 -111q-89 0 -149 61t-60 165q0 114 82 199q27 28 60.5 48t58.5 20q26 0 41.5 -20t16.5 -50q0 -12 -3 -26
l2 -1q126 119 126 209q0 14 -6 35q-2 15 10 28.5t29 13.5q18 0 29 -15.5t11 -40.5q0 -82 -117 -198q-120 -118 -266 -205q12 -72 60.5 -113t114.5 -41q87 0 152.5 71t93.5 190q-54 34 -80 34q-21 0 -32.5 -12.5t-11.5 -32.5q0 -28 10 -46q7 -12 7 -17q-1 -8 -13.5 -14
t-23.5 -6q-17 0 -29 16t-12 36q0 45 60 90q20 15 45.5 25.5t38.5 10.5q52 0 157 -84q18 -15 28 -15q18 0 19 103zM228 430q-32 0 -62.5 -48.5t-30.5 -118.5q0 -11 1 -17q25 14 67 44t59 47q4 15 4 35q1 25 -9.5 41.5t-28.5 16.5z" />
    <glyph glyph-name="quotesingle" unicode="'" horiz-adv-x="192" 
d="M234 710l8 -7q-10 -33 -36.5 -103t-46.5 -110l-31 -13q30 161 32 211z" />
    <glyph glyph-name="parenleft" unicode="(" horiz-adv-x="338" 
d="M373 711l16 -23q-110 -72 -177 -218t-67 -312q0 -203 86 -308l-23 -19q-66 53 -99 146t-33 194q1 182 82 327t215 213z" />
    <glyph glyph-name="parenright" unicode=")" horiz-adv-x="333" 
d="M140 692l23 19q72 -55 105.5 -161t21.5 -226q-8 -160 -85 -293.5t-207 -199.5l-16 23q106 71 168.5 202.5t70.5 281.5q11 101 -10.5 200t-70.5 154z" />
    <glyph glyph-name="asterisk" unicode="*" horiz-adv-x="391" 
d="M431 511v-28l-134 -15l31 -139l-25 -9l-61 134l-126 -68l-14 24l109 84l-98 109l17 21l115 -89l66 130l25 -9l-38 -136z" />
    <glyph glyph-name="plus" unicode="+" horiz-adv-x="596" 
d="M550 230h-210v-230h-57v230h-210v49h210v208h57v-208h210v-49z" />
    <glyph glyph-name="comma" unicode="," horiz-adv-x="235" 
d="M8 -114l-11 29q85 36 86 90q1 46 -46 61q-8 4 -8 14q1 20 16 34t33 14q31 0 52.5 -30t18.5 -69q-5 -98 -141 -143z" />
    <glyph glyph-name="hyphen" unicode="-" horiz-adv-x="334" 
d="M298 253l-18 -55h-230l18 55h230z" />
    <glyph glyph-name="period" unicode="." horiz-adv-x="235" 
d="M88 -12q-22 0 -35.5 14.5t-13.5 37.5q0 27 16.5 44.5t41.5 17.5q21 0 34.5 -15t13.5 -38q0 -28 -17 -44.5t-40 -16.5z" />
    <glyph glyph-name="slash" unicode="/" horiz-adv-x="322" 
d="M357 664l-322 -709h-53l322 709h53z" />
    <glyph glyph-name="zero" unicode="0" horiz-adv-x="477" 
d="M319 635q56 0 92 -34.5t49 -83t11 -108.5q-1 -64 -18 -134t-48 -136t-83.5 -108.5t-117.5 -42.5q-82 0 -119 66t-35 167q1 62 18.5 131.5t49.5 134t85 106.5t116 42zM314 602q-44 0 -79.5 -43t-56.5 -107.5t-32.5 -131.5t-12.5 -125q-4 -174 77 -174q43 0 78.5 46.5
t55.5 115.5t31.5 136t12.5 120q6 163 -74 163z" />
    <glyph glyph-name="one" unicode="1" horiz-adv-x="477" 
d="M374 635l-100 -514q-12 -62 0.5 -75.5t85.5 -19.5l-7 -26h-275l6 26q68 6 83.5 19t28.5 76l73 371q9 44 0 55t-54 11h-34l6 25q104 16 187 52z" />
    <glyph glyph-name="two" unicode="2" horiz-adv-x="477" 
d="M112 501l64 80q59 54 130 54q72 0 114 -42t42 -114q0 -70 -44 -126t-145 -142l-159 -139h178q43 0 63.5 10.5t49.5 52.5l24 -12q-16 -33 -56 -123h-370l1 21q126 106 200 177q86 83 129.5 144.5t43.5 121.5q0 48 -26 77.5t-80 29.5q-29 0 -57.5 -16.5t-44.5 -33
t-36 -41.5z" />
    <glyph glyph-name="three" unicode="3" horiz-adv-x="477" 
d="M130 522l47 60q53 53 128 53q61 0 96 -35.5t35 -85.5q0 -54 -47 -92q-28 -22 -75 -52v-2q54 -15 85.5 -52t31.5 -91q0 -98 -110 -175q-42 -30 -91 -46t-86 -16q-27 0 -54 10t-42 25q-22 21 -19 41q2 18 27 34q11 8 20 -1q57 -59 121 -59t105 41.5t41 121.5q0 58 -33 88.5
t-81 30.5q-24 0 -60 -9l-6 27q191 53 191 156q0 39 -22.5 61.5t-62.5 22.5q-25 0 -49.5 -13.5t-38 -27t-32.5 -36.5z" />
    <glyph glyph-name="four" unicode="4" horiz-adv-x="477" 
d="M461 222l-9 -43h-95l-12 -66q-10 -56 0.5 -69t68.5 -18l-6 -26h-253l6 26q65 5 80 17.5t26 69.5l13 66h-258l6 27q221 271 373 423h43l-79 -407h96zM353 533h-2q-129 -141 -260 -311h197z" />
    <glyph glyph-name="five" unicode="5" horiz-adv-x="477" 
d="M470 623l-30 -72h-230l-56 -184q75 24 104 24q80 0 125.5 -47t45.5 -112q0 -57 -33 -107.5t-93 -87.5q-77 -49 -152 -49q-34 0 -64 12t-45 28q-19 20 -15 37q2 20 26 35q12 7 22 -3q54 -59 127 -59q64 0 102.5 42t38.5 121q0 63 -34 100.5t-105 37.5q-44 0 -92 -17l-7 9
l82 292h283z" />
    <glyph glyph-name="six" unicode="6" horiz-adv-x="477" 
d="M497 641l6 -31q-54 -9 -111 -33q-167 -67 -230 -225l1 -2l65 31q40 18 61 18q72 -1 115 -48.5t43 -123.5q0 -100 -66.5 -169.5t-155.5 -69.5q-82 0 -130 58t-48 150q0 148 89.5 259t233.5 157q55 16 127 29zM248 346q-46 0 -98 -34q-18 -48 -18 -117q0 -74 26.5 -124
t80.5 -50t88.5 54.5t34.5 135.5q0 56 -26 95.5t-88 39.5z" />
    <glyph glyph-name="seven" unicode="7" horiz-adv-x="477" 
d="M517 623l8 -12l-383 -613l-79 -10l-7 12q228 283 390 551h-210q-46 0 -64 -13t-45 -64l-27 8q18 45 43 141h374z" />
    <glyph glyph-name="eight" unicode="8" horiz-adv-x="477" 
d="M313 635q60 0 104 -37.5t44 -99.5q0 -58 -45 -95q-44 -35 -92 -66q56 -41 83.5 -76.5t27.5 -84.5q0 -77 -64.5 -132.5t-154.5 -55.5q-73 0 -124 41.5t-51 113.5q0 59 54 106q27 23 111 76q-82 64 -82 140q-1 70 55 120t134 50zM299 602q-44 0 -72 -32t-28 -77
q0 -32 15.5 -58.5t32.5 -41t43 -32.5q5 -3 8 -5q87 57 87 143q0 46 -24 74.5t-62 28.5zM230 21q53 0 87 36t34 95q0 46 -28.5 78t-89.5 75q-110 -66 -110 -162q0 -54 29 -88t78 -34z" />
    <glyph glyph-name="nine" unicode="9" horiz-adv-x="477" 
d="M307 635q85 0 128 -61.5t43 -145.5q0 -146 -86 -256.5t-215 -157.5q-82 -29 -131 -29l-5 29q105 19 195.5 90.5t132.5 184.5l-74 -35q-29 -14 -57 -14q-62 0 -105 47t-43 120q0 92 65 160t152 68zM295 602q-52 0 -86.5 -50.5t-34.5 -121.5q0 -61 29.5 -97.5t84.5 -36.5
q51 0 89 29q17 48 17 118q0 23 -3 45t-11.5 50.5t-30.5 46t-54 17.5z" />
    <glyph glyph-name="colon" unicode=":" horiz-adv-x="235" 
d="M133 298q-21 0 -34.5 15t-13.5 37q0 27 16 44.5t41 17.5q20 0 34 -15t14 -38q0 -27 -17 -44t-40 -17zM88 -12q-22 0 -35.5 14.5t-13.5 37.5q0 27 16.5 44.5t41.5 17.5q21 0 34.5 -15t13.5 -38q0 -28 -17 -44.5t-40 -16.5z" />
    <glyph glyph-name="semicolon" unicode=";" horiz-adv-x="235" 
d="M131 298q-21 0 -35 15t-14 37q0 27 16.5 44.5t41.5 17.5q20 0 34 -15t14 -38q0 -27 -17 -44t-40 -17zM8 -114l-12 29q86 37 86 90q0 47 -45 61q-8 4 -8 14q1 20 16 34t33 14q31 0 51 -29t20 -64q0 -56 -41.5 -93t-99.5 -56z" />
    <glyph glyph-name="less" unicode="&#x3c;" horiz-adv-x="597" 
d="M517 0l-452 230v47l452 230v-55l-393 -198v-2l393 -197v-55z" />
    <glyph glyph-name="equal" unicode="=" horiz-adv-x="596" 
d="M552 321h-485v50h485v-50zM552 138h-485v50h485v-50z" />
    <glyph glyph-name="greater" unicode="&#x3e;" horiz-adv-x="597" 
d="M552 230l-452 -230v55l393 197v2l-393 198v55l452 -230v-47z" />
    <glyph glyph-name="question" unicode="?" horiz-adv-x="354" 
d="M201 212l-20 -21q-33 18 -60 49.5t-27 65.5q1 62 106 128q37 22 57 35t43 37t23 45q0 24 -14.5 37.5t-41.5 13.5q-28 0 -54 -12.5t-41.5 -25.5t-19.5 -13q-12 0 -23 12.5t-11 28.5q0 19 28 38q44 34 92 34q53 0 92.5 -43.5t39.5 -102.5q0 -66 -66 -109l-26 -17
q-67 -44 -89.5 -64t-22.5 -46q0 -37 35 -70zM132 -12q-23 0 -37.5 15.5t-14.5 39.5q0 28 17.5 47t43.5 19q23 0 37.5 -16t14.5 -41q0 -29 -18 -46.5t-43 -17.5z" />
    <glyph glyph-name="at" unicode="@" horiz-adv-x="738" 
d="M542 -20l10 -28q-94 -52 -200 -52q-124 0 -211 80.5t-87 218.5q0 87 33 160t88 120t123.5 73t140.5 26q128 0 201.5 -73.5t73.5 -183.5q0 -103 -70.5 -176.5t-172.5 -73.5q-34 0 -42.5 20.5t1.5 52.5l12 54l-2 1q-26 -40 -81 -84t-86 -44q-19 0 -33.5 23t-14.5 61
q0 48 21 100.5t63 91.5q72 68 160 71q10 1 52 -9q20 -4 30 -4q-30 -118 -53 -233q-7 -34 -3.5 -47t19.5 -12q56 2 104.5 56.5t48.5 151.5q0 102 -67 160.5t-169 58.5q-138 0 -225 -93.5t-87 -237.5q0 -49 14.5 -94t44 -84t83.5 -62.5t125 -23.5q88 0 156 35zM428 380
q-38 0 -68 -32q-23 -26 -42 -75.5t-19 -98.5q0 -41 20 -41q18 0 55 31.5t79 95.5q18 51 28 108q-21 12 -53 12z" />
    <glyph glyph-name="A" unicode="A" horiz-adv-x="664" 
d="M621 27l-7 -27h-236l7 27q50 5 61 16t6 45l-25 148h-209q-50 -94 -70 -136q-21 -45 -12 -56.5t67 -16.5l-6 -27h-215l7 27q47 6 65 20.5t53 75.5l301 533l31 8l28 -177q26 -166 64 -373q9 -54 23 -68t67 -19zM421 278l-40 259h-2q-115 -212 -139 -259h181z" />
    <glyph glyph-name="B" unicode="B" horiz-adv-x="579" 
d="M131 649h234q188 0 188 -137q0 -64 -45 -103t-118 -55v-2q65 -13 106 -52t41 -104q0 -53 -31.5 -95t-83.5 -67q-72 -34 -202 -34h-213l6 27q59 5 74 19t27 74l81 418q11 54 0.5 66.5t-70.5 18.5zM242 367h51q81 0 125.5 38.5t44.5 104.5q0 58 -34 83t-84 25
q-31 0 -46 -10q-14 -9 -20 -44zM235 334l-40 -212q-9 -53 8.5 -70.5t69.5 -17.5q74 0 121 46t47 121q0 133 -157 133h-49z" />
    <glyph glyph-name="C" unicode="C" horiz-adv-x="635" 
d="M582 174l26 -14q-13 -32 -38 -80t-41 -71q-103 -24 -172 -24q-129 0 -210 76t-81 212q0 174 119 283t296 109q87 0 171 -33q-1 -16 -3.5 -70.5t-4.5 -82.5l-30 -3q-4 86 -41 120t-115 34q-128 0 -211.5 -105.5t-83.5 -248.5q0 -112 54 -184.5t151 -72.5q69 0 117.5 40
t96.5 115z" />
    <glyph glyph-name="D" unicode="D" horiz-adv-x="708" 
d="M130 649h249q151 0 234.5 -66.5t83.5 -204.5q0 -95 -43 -174.5t-122 -128.5q-116 -75 -306 -75h-217l7 27q58 6 73 20t26 73l78 408q11 59 1 73t-70 22zM280 556l-81 -427q-7 -37 -4.5 -54.5t15.5 -24.5q24 -14 73 -14q147 0 233 100.5t86 246.5q0 113 -62 173t-172 60
q-47 0 -66 -10q-14 -9 -22 -50z" />
    <glyph glyph-name="E" unicode="E" horiz-adv-x="559" 
d="M128 649h435q-3 -18 -19 -153l-29 -2q-2 65 -13 88q-9 19 -27.5 26.5t-69.5 7.5h-78q-25 0 -31.5 -6.5t-12.5 -34.5l-41 -217h96q62 0 79 11.5t35 61.5h29l-38 -189h-28q2 54 -10 65.5t-75 11.5h-96l-33 -175q-15 -80 5 -96q18 -14 101 -14q55 0 83 7t48 27q29 28 67 96
l28 -10l-17 -42l-26 -66l-19 -46h-468l6 27q61 5 77 19t28 74l79 410q12 60 1.5 73.5t-72.5 19.5z" />
    <glyph glyph-name="F" unicode="F" horiz-adv-x="527" 
d="M131 649h432l-4 -32l-7 -61l-7 -59l-29 -3q-2 60 -11 86q-7 20 -26.5 28t-70.5 8h-82q-24 0 -30.5 -7t-11.5 -33l-44 -229h104q45 0 64 5.5t28.5 17.5t24.5 49h29l-38 -192h-28q0 56 -12.5 68.5t-75.5 12.5h-104l-35 -183q-11 -63 1.5 -78t81.5 -20l-6 -27h-264l7 27
q56 5 71 20t27 78l77 399q12 65 2.5 78.5t-69.5 20.5z" />
    <glyph glyph-name="G" unicode="G" horiz-adv-x="681" 
d="M654 477l-29 -2q0 82 -40 118.5t-120 36.5q-134 0 -217.5 -103.5t-83.5 -248.5q0 -115 57 -186.5t160 -71.5q99 0 114 70l19 94q11 55 -1.5 67t-86.5 19l6 26h244l-6 -25q-42 -7 -53 -19.5t-21 -67.5l-16 -83q-9 -48 -5 -79q-14 -3 -47 -11.5t-53.5 -13t-52 -8.5
t-59.5 -4q-133 0 -214.5 76t-81.5 210q0 172 118 283t304 111q87 0 177 -32q-7 -70 -12 -156z" />
    <glyph glyph-name="H" unicode="H" horiz-adv-x="742" 
d="M787 649l-6 -26q-58 -6 -72.5 -20t-26.5 -76l-77 -406q-12 -60 -1 -74.5t71 -19.5l-6 -27h-254l7 27q59 5 74.5 19.5t26.5 74.5l38 202h-327l-38 -202q-11 -62 -0.5 -75.5t71.5 -18.5l-6 -27h-248l6 27q56 5 70 19t25 75l78 406q12 62 1.5 76t-72.5 20l7 26h247l-6 -26
q-54 -6 -69 -21t-26 -75l-31 -163h326l32 163q11 62 1 76t-69 20l6 26h248z" />
    <glyph glyph-name="I" unicode="I" horiz-adv-x="335" 
d="M380 649l-6 -26q-58 -6 -72 -18.5t-25 -67.5l-81 -421q-11 -58 0 -71t73 -18l-6 -27h-256l7 27q58 4 73.5 18t26.5 71l81 421q10 54 -1.5 67t-74.5 19l7 26h254z" />
    <glyph glyph-name="J" unicode="J" horiz-adv-x="321" 
d="M375 649l-7 -26q-55 -7 -68 -20t-24 -72l-75 -401q-18 -97 -50.5 -154.5t-89.5 -90.5q-47 -27 -78 -29l-10 29q80 24 111 108q19 52 40 157l71 381q6 33 7 47.5t-9 25t-23 13t-48 6.5l6 26h247z" />
    <glyph glyph-name="K" unicode="K" horiz-adv-x="653" 
d="M715 649l-7 -26q-56 -8 -81.5 -19.5t-72.5 -48.5t-219 -186q88 -145 182 -275q28 -38 47.5 -50t62.5 -17l-8 -27h-144q-176 273 -186 291q-15 25 -28.5 31t-29.5 -2l-35 -192q-12 -67 -2 -81.5t69 -19.5l-6 -27h-245l7 27q55 5 69.5 20t27.5 81l76 398q12 62 2 76t-69 21
l7 26h242l-6 -26q-57 -7 -71 -21t-26 -76l-34 -178q34 11 75 45q112 95 202 184q22 20 20.5 28.5t-27.5 12.5l-30 5l7 26h231z" />
    <glyph glyph-name="L" unicode="L" horiz-adv-x="532" 
d="M484 167l28 -11q-35 -96 -64 -156h-441l6 27q58 4 73 18t26 71l82 418q11 58 0.5 70.5t-71.5 18.5l6 26h250l-6 -26q-59 -5 -73 -18t-25 -71l-79 -414q-11 -56 11 -72q15 -13 90 -13q86 0 117 30q35 35 70 102z" />
    <glyph glyph-name="M" unicode="M" horiz-adv-x="876" 
d="M910 649l-7 -26q-64 -6 -78 -19t-24 -76q-29 -199 -54 -393q-4 -27 -5 -42t1.5 -28t5.5 -18t15 -10t22.5 -6.5t34.5 -3.5l-6 -27h-253l6 27q59 6 73 21t25 87q9 66 20 137l25 152l21 132h-3l-331 -552h-22l-102 542h-3l-72 -264q-41 -152 -47 -192q-5 -34 8.5 -46
t67.5 -17l-6 -27h-225l6 27q43 4 62.5 16.5t31.5 44.5q29 76 72 229l56 190q12 41 15.5 59.5t-5 32t-25.5 17t-56 7.5l7 26h167l109 -501l311 501h162z" />
    <glyph glyph-name="N" unicode="N" horiz-adv-x="705" 
d="M766 649l-6 -26q-44 -3 -60.5 -16t-26.5 -47q-16 -54 -38 -170l-76 -398h-30l-296 530h-3l-52 -266q-23 -115 -26 -168q-1 -34 15.5 -45.5t69.5 -15.5l-6 -27h-229l6 27q40 2 59 14.5t29 43.5q17 50 42 174l52 246q7 39 5.5 54.5t-11.5 32.5q-9 16 -26 22t-59 9l6 26h144
l295 -509h4l46 250q23 119 27 171q2 35 -14.5 46.5t-72.5 15.5l7 26h225z" />
    <glyph glyph-name="O" unicode="O" horiz-adv-x="708" 
d="M430 665q119 0 192.5 -80t73.5 -207q0 -162 -104 -277.5t-260 -115.5q-118 0 -192 78.5t-74 205.5q0 160 105.5 278t258.5 118zM422 630q-75 0 -136 -56.5t-92.5 -140.5t-31.5 -173q0 -106 45 -173t133 -67q79 0 140.5 58.5t91 141.5t29.5 168q0 108 -43.5 175t-135.5 67
z" />
    <glyph glyph-name="P" unicode="P" horiz-adv-x="554" 
d="M132 649h228q210 0 210 -168q0 -67 -38 -117.5t-90 -73.5t-110 -27q-13 -1 -39 -1l-67 21l-30 -158q-12 -63 0.5 -77.5t81.5 -20.5l-6 -27h-265l6 27q58 6 73.5 20.5t28.5 77.5l80 405q12 59 1.5 72.5t-70.5 20.5zM280 563l-47 -248q36 -13 74 -13q29 0 57.5 10t55.5 30
t44 57t17 85q0 63 -34.5 98.5t-99.5 35.5q-25 0 -43 -8q-16 -7 -24 -47z" />
    <glyph glyph-name="Q" unicode="Q" horiz-adv-x="709" 
d="M663 -140l-8 -21q-65 2 -118 17q-66 17 -214 121l-14 10q-109 8 -176 84.5t-67 195.5q0 161 105 279.5t259 118.5q119 0 192.5 -80t73.5 -207q0 -133 -75 -238.5t-193 -139.5l13 -9q101 -73 222 -131zM302 22l69 18q8 -5 24 -17q91 25 148.5 135t57.5 229
q0 108 -43.5 175.5t-135.5 67.5q-74 0 -135 -56t-93 -141t-32 -175q0 -92 36.5 -156.5t103.5 -79.5z" />
    <glyph glyph-name="R" unicode="R" horiz-adv-x="599" 
d="M585 17l-8 -25h-10q-70 4 -104 25t-62 73q-32 59 -68 148q-12 29 -25 38t-40 9h-42l-29 -158q-12 -66 -1.5 -80.5t71.5 -19.5l-6 -27h-251l6 27q58 6 72.5 20.5t27.5 79.5l77 402q12 62 2 75t-70 19l7 26h217q97 0 142 -31q59 -40 59 -123q0 -70 -44 -119t-111 -72
q28 -72 60 -134q36 -70 62 -105q27 -35 68 -48zM232 316h47q69 0 107 25q75 52 75 146q0 64 -31 97.5t-87 33.5q-32 0 -45 -10q-12 -8 -19 -44z" />
    <glyph glyph-name="S" unicode="S" horiz-adv-x="468" 
d="M38 195l27 3q5 -32 15 -60.5t28.5 -57t49 -45t69.5 -16.5q54 0 87 35t33 94q0 40 -22.5 71.5t-70.5 69.5l-28 22q-32 26 -51.5 44.5t-40 55.5t-20.5 75q0 78 56.5 128.5t146.5 50.5q47 0 95 -17l44 -16q-2 -19 -2.5 -42.5t-0.5 -53.5v-44l-29 -3q-15 143 -120 143
q-51 0 -81.5 -34.5t-30.5 -82.5q0 -39 23 -68.5t70 -65.5l30 -22q57 -43 86.5 -85.5t29.5 -97.5q0 -85 -64 -138t-154 -53q-55 0 -104 20t-68 42q0 10 -1 60t-2 88z" />
    <glyph glyph-name="T" unicode="T" horiz-adv-x="603" 
d="M636 674h21q-9 -53 -23 -175l-30 -3q0 64 -12 89q-7 18 -28.5 24.5t-78.5 6.5h-60l-93 -496q-11 -60 1.5 -74t80.5 -19l-6 -27h-272l6 27q63 4 79 18.5t27 74.5l95 496h-51q-62 0 -85 -6t-38 -24q-22 -26 -49 -90h-30q29 94 47 178h21q8 -16 17.5 -20.5t31.5 -4.5h376
q19 0 28.5 5t24.5 20z" />
    <glyph glyph-name="U" unicode="U" horiz-adv-x="707" 
d="M773 649l-6 -26q-47 -3 -63.5 -14t-24.5 -41q-17 -59 -40 -180l-15 -77q-38 -185 -119 -260q-70 -66 -170 -66q-96 0 -154 54q-77 72 -45 242l48 253q11 58 1 70.5t-70 18.5l6 26h248l-6 -26q-58 -6 -72 -18.5t-25 -71.5l-46 -244q-25 -129 16 -190t122 -61
q89 0 143 67.5t83 213.5l14 69q24 123 27 180q1 30 -16 40.5t-72 14.5l6 26h230z" />
    <glyph glyph-name="V" unicode="V" horiz-adv-x="675" 
d="M749 649l-7 -26q-49 -6 -68 -20t-57 -74q-91 -148 -304 -539h-29q-48 288 -97 545q-12 56 -26 69.5t-62 18.5l7 26h229l-7 -26l-27 -5q-29 -4 -35.5 -13t-2.5 -36q4 -31 16 -99t33.5 -180.5t31.5 -169.5h2q191 342 232 430q19 41 14 52t-38 16l-31 5l7 26h219z" />
    <glyph glyph-name="W" unicode="W" horiz-adv-x="949" 
d="M1009 649l-6 -26q-50 -8 -66.5 -21t-46.5 -72q-43 -81 -255 -540h-31l-81 496h-3l-239 -496h-31l-60 537q-7 63 -18.5 76.5t-62.5 19.5l6 26h226l-7 -26l-25 -4q-31 -5 -37.5 -15.5t-2.5 -50.5l43 -418h2l237 502h29l83 -503h2q160 351 186 420q15 38 8.5 49t-44.5 16
l-26 4l6 26h214z" />
    <glyph glyph-name="X" unicode="X" horiz-adv-x="642" 
d="M680 649l-6 -26q-53 -6 -73 -16t-59 -52l-162 -194l111 -246q25 -57 42.5 -70t75.5 -18l-6 -27h-252l6 27l31 4q27 4 32.5 13t-4.5 35l-93 214q-119 -151 -161 -214q-16 -23 -12 -33.5t35 -15.5l24 -3l-6 -27h-227l7 27q48 5 69.5 15.5t58.5 49.5q60 65 195 235l-96 217
q-22 49 -38.5 61t-67.5 18l7 26h231l-6 -26l-26 -5q-25 -5 -30 -11t2 -28q13 -34 82 -184q80 96 138 179q16 23 12.5 31.5t-28.5 12.5l-29 5l6 26h217z" />
    <glyph glyph-name="Y" unicode="Y" horiz-adv-x="611" 
d="M686 649l-7 -26q-48 -5 -68 -17t-58 -59q-54 -69 -164 -225q-18 -24 -24 -57l-28 -141q-12 -64 -0.5 -77.5t79.5 -19.5l-6 -27h-267l7 27q61 5 76.5 19t28.5 78l27 135q5 28 -5 59l-89 234q-17 44 -31 54.5t-61 16.5l6 26h232l-7 -26l-35 -5q-26 -4 -30.5 -12t3.5 -30
q39 -114 91 -241q113 155 161 235q15 26 10 35t-33 13l-31 4l7 27h216z" />
    <glyph glyph-name="Z" unicode="Z" horiz-adv-x="588" 
d="M611 649l6 -13l-491 -596q60 -6 156 -6q79 0 120 6t64 25q30 26 73 111l28 -12q-31 -103 -60 -164h-499l-6 15l495 601h-158q-70 0 -95.5 -8t-41.5 -28q-25 -28 -51 -95l-29 3q28 103 41 186h21q9 -16 18.5 -20.5t31.5 -4.5h377z" />
    <glyph glyph-name="bracketleft" unicode="[" horiz-adv-x="338" 
d="M384 704l-7 -27q-78 -8 -94.5 -20.5t-28.5 -74.5l-119 -622q-12 -62 0.5 -74.5t91.5 -20.5l-7 -27h-171l167 866h168z" />
    <glyph glyph-name="backslash" unicode="\" horiz-adv-x="375" 
d="M325 -45h-53l-192 709h53z" />
    <glyph glyph-name="bracketright" unicode="]" horiz-adv-x="338" 
d="M320 704l-166 -866h-169l7 27q79 7 95 20t28 75l120 622q11 62 -1.5 74.5t-91.5 20.5l7 27h171z" />
    <glyph glyph-name="asciicircum" unicode="^" horiz-adv-x="552" 
d="M503 211h-59l-156 346l-156 -346h-55l192 412h42z" />
    <glyph glyph-name="underscore" unicode="_" horiz-adv-x="500" 
d="M500 -125h-500v50h500v-50z" />
    <glyph glyph-name="grave" unicode="`" 
d="M322 500l-29 -9q-63 120 -89 164l4 9q7 3 34.5 8t38.5 4q4 -19 41 -176z" />
    <glyph glyph-name="a" unicode="a" horiz-adv-x="490" 
d="M453 116l12 -24q-37 -46 -80.5 -75t-65.5 -29q-35 0 -18 88l20 95h-2q-55 -78 -129 -138q-55 -45 -93 -45q-22 0 -40 29t-18 84q0 76 33 151t87 120q40 33 90.5 55t95.5 22q25 0 62 -7q28 -6 38 -6l3 -4q-34 -132 -69 -325q-9 -43 2 -43q7 0 29.5 16t42.5 36zM149 52
q28 0 93.5 71t92.5 125q7 27 33 144q-28 14 -67 14q-44 0 -71 -21q-49 -36 -78.5 -112.5t-29.5 -154.5q0 -32 8 -49t19 -17z" />
    <glyph glyph-name="b" unicode="b" horiz-adv-x="486" 
d="M105 654l2 24q34 4 68 12.5t54.5 15t26.5 6.5q12 0 5 -31q-46 -185 -89 -382h2q60 74 119.5 112t97.5 38q33 0 52 -30t19 -80q0 -83 -44 -167.5t-110 -128.5q-80 -55 -151 -55q-24 0 -46.5 12t-33.5 31q-23 38 -6 125l96 449q7 34 1.5 41t-34.5 7zM207 34q27 0 52 15
q47 28 83.5 106.5t36.5 166.5q0 72 -34 72q-28 0 -82 -44.5t-100 -110.5q-9 -27 -18 -78q-12 -67 7 -97t55 -30z" />
    <glyph glyph-name="c" unicode="c" horiz-adv-x="382" 
d="M336 121l15 -22q-45 -52 -99.5 -81.5t-100.5 -29.5q-49 0 -78 38t-29 109q0 64 28 130.5t75 109.5q33 29 79 51.5t81 22.5q31 0 53 -15.5t23 -34.5q0 -29 -33 -46q-12 -7 -22 6q-31 43 -75 43q-48 0 -83 -66q-44 -79 -44 -181q0 -52 19 -80t52 -28q34 0 73.5 23.5
t65.5 50.5z" />
    <glyph glyph-name="d" unicode="d" horiz-adv-x="508" 
d="M470 112l14 -23q-37 -44 -80.5 -72.5t-66.5 -28.5q-37 0 -18 93l18 85l-2 -1q-52 -69 -132 -131q-57 -46 -97 -46q-27 0 -46 31.5t-19 88.5q0 72 31 145t85 119q35 31 88.5 54t88.5 23q32 0 59 -11l33 165q7 34 1 41.5t-39 7.5h-32l3 25q37 4 72 13t55.5 15.5t25.5 6.5
q13 0 7 -28q-77 -328 -124 -588q-7 -33 4 -33q22 0 71 49zM155 53q35 0 100 66t94 118l32 143q-28 26 -81 26q-41 0 -70 -21q-47 -34 -76.5 -111.5t-29.5 -146.5q0 -74 31 -74z" />
    <glyph glyph-name="e" unicode="e" 
d="M348 124l17 -23q-106 -113 -211 -113q-44 0 -77 33t-33 113q0 74 31.5 145t88.5 114q73 56 138 56q39 0 63.5 -23.5t24.5 -56.5q0 -111 -264 -177q-2 -12 -2 -32q0 -48 18 -80.5t60 -32.5q67 0 146 77zM265 408q-22 0 -41 -12q-28 -16 -55.5 -57.5t-38.5 -115.5
q185 49 185 130q0 26 -14 40.5t-36 14.5z" />
    <glyph glyph-name="f" unicode="f" horiz-adv-x="271" 
d="M79 433h64q27 135 84 199q34 37 73 58.5t70 21.5q25 0 43 -14t17 -29q0 -23 -25 -41q-15 -11 -25 1q-33 35 -63 35t-53 -50t-44 -181h113l-21 -31l-100 -10q-23 -142 -51 -282q-25 -124 -54.5 -191.5t-72.5 -112.5q-59 -63 -113 -63q-23 0 -43 13t-19 30q0 20 27 42
q10 9 19 0q27 -25 63 -25q26 0 43 20q34 39 70 251l54 320h-83l-3 11z" />
    <glyph glyph-name="g" unicode="g" horiz-adv-x="420" 
d="M469 445l7 -19q-37 -41 -71 -47q-12 -3 -26 -3q8 -22 8 -56q0 -93 -76 -153q-53 -43 -129 -58q-20 -17 -20 -32q0 -21 72 -58q72 -38 103.5 -69.5t31.5 -63.5q0 -58 -78.5 -100.5t-157.5 -42.5q-73 0 -126.5 33t-52.5 79q1 59 168 144q-39 25 -37 49q0 26 61 62
q-87 20 -87 122q0 48 22.5 92.5t61.5 74.5q62 50 128 50q53 0 85 -28q77 1 113 24zM200 149q43 0 78 46t35 122q0 44 -17.5 70.5t-49.5 26.5q-43 0 -73 -45q-38 -54 -38 -130q0 -43 18.5 -66.5t46.5 -23.5zM173 -215q55 0 89 22t34 52q0 36 -73 79q-52 31 -75 43
q-51 -25 -81 -53.5t-30 -55.5q0 -37 41 -62t95 -25z" />
    <glyph glyph-name="h" unicode="h" horiz-adv-x="511" 
d="M465 108l13 -24q-38 -43 -79.5 -69.5t-64.5 -26.5q-39 0 -17 97l53 232q16 71 -8 71q-34 0 -104.5 -66.5t-107.5 -132.5q-19 -82 -37 -182q-36 -6 -71 -19l-7 8q81 364 126 600q7 39 2 47t-35 9l-29 1l3 24q34 3 68 12t54 16t25 7q12 0 4 -35l-90 -415h2q83 111 185 166
q39 21 67 21q57 0 28 -127l-52 -224q-7 -36 3 -36q21 0 69 46z" />
    <glyph glyph-name="i" unicode="i" horiz-adv-x="273" 
d="M222 641q19 0 29 -13t11 -32q0 -24 -15.5 -41t-37.5 -17q-18 0 -29.5 12t-12.5 32q0 21 15.5 40t39.5 19zM223 109l13 -21q-26 -33 -73.5 -66.5t-72.5 -33.5q-37 0 -13 98l62 256q9 32 -1 32q-18 0 -68 -43l-12 23q40 39 85.5 67t66.5 28q28 0 10 -79l-69 -276
q-8 -32 2 -32q19 0 70 47z" />
    <glyph glyph-name="j" unicode="j" horiz-adv-x="266" 
d="M216 648q19 0 29.5 -13t10.5 -32q0 -24 -15 -41t-37 -17q-18 0 -30 12.5t-13 31.5q0 22 15 40.5t40 18.5zM68 321l-13 23q43 46 89 75.5t69 29.5q29 0 8 -103q-20 -106 -56 -280q-37 -183 -118 -260q-64 -63 -107 -63q-15 0 -29 9.5t-14 22.5q0 24 24 44q12 10 22 4
q28 -16 49 -16q22 0 38 24.5t30 82.5q9 39 80 400q2 7 3 13t2 11t1.5 9t0.5 7v6v4l-1 4l-1 2h-2l-2 1q-7 0 -30 -15.5t-43 -34.5z" />
    <glyph glyph-name="k" unicode="k" horiz-adv-x="470" 
d="M437 99l17 -20q-58 -91 -110 -91q-17 0 -32.5 14t-33.5 52q-42 89 -76 186q-47 -49 -56 -64l-34 -169q-45 -9 -72 -19l-7 6q76 325 136 613q6 30 0 37t-36 8l-31 1l5 24q35 4 69 13t54 15.5t24 6.5q11 0 5 -29l-100 -445h1q31 36 86 90q119 121 175 121q19 0 30.5 -9.5
t11.5 -21.5q0 -20 -20 -40q-10 -8 -16 -5q-18 8 -38 8q-55 0 -130 -83q28 -98 82 -197q23 -48 39 -48q17 0 57 46z" />
    <glyph glyph-name="l" unicode="l" horiz-adv-x="249" 
d="M215 117l15 -22q-38 -45 -84 -76t-70 -31q-40 0 -14 121l104 493q7 32 0 41t-42 9l-27 1l4 24q34 4 68.5 13t55 15.5t24.5 6.5q12 0 6 -30l-124 -585q-7 -35 4 -35q9 0 34.5 17t45.5 38z" />
    <glyph glyph-name="m" unicode="m" horiz-adv-x="787" 
d="M735 108l13 -24q-38 -42 -79.5 -69t-61.5 -27q-40 0 -16 103l55 231q15 65 -10 65q-33 0 -104 -76.5t-100 -132.5q-18 -70 -39 -172q-37 -4 -73 -18l-6 7q56 227 72 300q11 51 9.5 71.5t-17.5 20.5q-33 0 -104 -77.5t-98 -131.5q-15 -52 -41 -172q-34 -4 -72 -18l-7 7
q47 176 83 340q10 43 -1 43q-16 0 -69 -49l-12 24q40 43 80 69.5t61 26.5q38 0 8 -123l-17 -71h2q85 120 179 174q35 20 62 20q58 0 24 -152l-9 -41h2q86 120 183 174q34 19 61 19q56 0 21 -145l-49 -209q-8 -32 2 -32q7 0 27.5 13t40.5 32z" />
    <glyph glyph-name="n" unicode="n" horiz-adv-x="532" 
d="M481 109l14 -24q-42 -45 -81 -71t-60 -26q-40 0 -16 104l54 222q18 72 -8 72q-32 0 -101 -71t-109 -138q-28 -116 -39 -169q-37 -7 -72 -20l-6 8q57 228 81 339q10 40 -1 40q-18 0 -65 -45l-13 24q39 43 79 69t62 26q35 0 8 -111l-21 -87h2q86 118 184 176q38 22 67 22
q56 0 22 -143l-49 -208q-8 -36 2 -36q17 0 66 47z" />
    <glyph glyph-name="o" unicode="o" horiz-adv-x="470" 
d="M178 -12q-67 0 -99.5 44.5t-32.5 111.5q0 93 43 165.5t109 107.5q61 32 108 32q63 0 98 -41t35 -115q0 -67 -28 -133.5t-79 -108.5q-75 -63 -154 -63zM214 28q17 0 32 6q43 18 76 91.5t33 165.5q0 59 -22.5 89.5t-58.5 30.5q-18 0 -38 -9q-37 -16 -71.5 -82.5
t-34.5 -170.5q0 -56 22.5 -88.5t61.5 -32.5z" />
    <glyph glyph-name="p" unicode="p" horiz-adv-x="486" 
d="M239 514l-18 -77q42 12 93 12q75 0 109.5 -34.5t34.5 -103.5q0 -110 -85 -207q-80 -89 -186 -116q-35 0 -59 10l-28 -141q-9 -43 -1.5 -55t44.5 -16l24 -2l-3 -26l-231 -12l4 26q48 9 63 22.5t25 59.5l112 523q-30 -9 -81 -36l-7 25q39 28 96 50l11 45q28 33 73 58z
M212 399l-68 -333q9 -13 27 -23.5t35 -10.5q55 0 111.5 85t56.5 178q0 62 -28 86.5t-77 24.5q-30 0 -57 -7z" />
    <glyph glyph-name="q" unicode="q" horiz-adv-x="484" 
d="M415 -217l-4 -25l-231 -12l5 26l16 3q36 8 49 21.5t22 58.5l64 309h-2q-48 -62 -128 -126q-64 -50 -105 -50q-26 0 -44.5 31.5t-18.5 80.5q0 78 32 149t84 118q33 29 76.5 49.5t75.5 26.5q21 6 52 6q40 0 87 -15l16 -4q-31 -127 -47 -219l-65 -350q-8 -48 -1 -59t43 -16z
M306 405q-43 0 -74 -22q-50 -36 -80 -111t-30 -146t30 -71q34 0 94 57t97 115q19 72 35 163q-28 15 -72 15z" />
    <glyph glyph-name="r" unicode="r" horiz-adv-x="366" 
d="M62 328l-13 23q37 42 78 70t62 28q36 0 11 -116l-10 -50h3q39 75 79.5 120.5t70.5 45.5q27 0 43 -25q11 -21 -1 -43q-9 -16 -26 -29q-14 -9 -22 -1q-16 17 -34 17q-21 0 -51 -42q-51 -74 -71 -124q-18 -77 -40 -196q-34 -5 -71 -18l-8 8q49 201 73 337q8 43 -2 43
q-7 0 -28.5 -14t-42.5 -34z" />
    <glyph glyph-name="s" unicode="s" horiz-adv-x="337" 
d="M113 -12q-36 0 -68.5 23t-32.5 49q-1 24 29 42q17 8 25 -3q41 -61 96 -61q29 0 47.5 17.5t18.5 42.5q0 38 -58 84q-41 31 -64 59t-23 63q0 52 52 97q23 20 55 34t56 14q32 0 55 -18t23 -38q0 -26 -25 -41q-13 -8 -22 4q-36 45 -78 45q-22 0 -38 -15.5t-16 -40.5
q0 -24 16 -43.5t49 -45.5q46 -35 65 -60.5t19 -56.5q0 -56 -59.5 -103.5t-121.5 -47.5z" />
    <glyph glyph-name="t" unicode="t" horiz-adv-x="307" 
d="M338 433l-26 -34l-99 -5l-59 -276q-12 -60 6 -60q12 0 41.5 19.5t48.5 38.5l14 -21q-31 -37 -78 -72t-83 -35q-13 0 -20.5 11.5t-10 40.5t9.5 80l59 274h-74l-3 9l25 30h60l23 95l76 62l9 -6l-35 -151h116z" />
    <glyph glyph-name="u" unicode="u" horiz-adv-x="533" 
d="M492 114l13 -24q-35 -43 -78 -72.5t-67 -29.5q-39 0 -15 106q5 20 19 88h-2q-81 -107 -161 -163q-43 -31 -81 -31q-64 0 -33 127l54 230q8 34 -3 34q-10 0 -70 -48l-11 24q42 42 84 68t63 26q12 0 17 -8t3.5 -26.5t-9.5 -52.5l-55 -240q-15 -66 12 -66q39 0 106 72
t101 135l36 160l69 26h11q-45 -177 -78 -348q-8 -39 3 -39q7 0 30 16t42 36z" />
    <glyph glyph-name="v" unicode="v" horiz-adv-x="447" 
d="M219 87h2q155 193 155 264q0 27 -11 44q-4 12 0 25q13 29 43 29q18 0 30 -16t13 -41q0 -48 -62 -134q-90 -126 -207 -270h-27q-4 131 -19 311q-6 77 -18 77q-13 0 -59 -53l-16 22q29 43 62.5 73.5t56.5 30.5q36 0 44 -111l6 -122z" />
    <glyph glyph-name="w" unicode="w" horiz-adv-x="670" 
d="M457 91h2q141 193 141 258q0 24 -10 46q-7 12 0 25q13 29 41 29q19 0 31 -15.5t12 -41.5q0 -34 -41 -105q-37 -59 -211 -299h-28q-9 123 -28 312h-2l-191 -312h-26q-1 109 -10 322q-3 66 -16 66q-11 0 -59 -51l-17 20q34 45 69 74.5t59 29.5q33 0 36 -99q3 -120 3 -236h2
l58 98l70 120l58 102h25l15 -162z" />
    <glyph glyph-name="x" unicode="x" horiz-adv-x="473" 
d="M86 324l-17 21q72 104 119 104q19 0 31 -23.5t33 -85.5l18 -55q63 92 100 128t70 36q19 0 30.5 -13t11.5 -30q-1 -17 -14 -30.5t-25 -13.5q-7 0 -15 8q-9 12 -23 12q-21 0 -60 -50q-36 -41 -65 -82l32 -100q29 -92 51 -92q23 0 72 58l17 -20q-70 -108 -127 -108
q-38 0 -66 92l-31 97q-67 -106 -107 -147.5t-76 -41.5q-19 0 -32.5 13.5t-12.5 34.5q0 18 13 32.5t27 14.5q8 0 16 -10t23 -10q37 0 138 151l-34 104q-18 63 -33 63q-19 0 -64 -57z" />
    <glyph glyph-name="y" unicode="y" horiz-adv-x="442" 
d="M239 75h2q96 148 121 213q13 37 13 62q0 23 -11 47q-5 11 2 25q13 27 42 27q17 0 28 -15.5t11 -39.5q1 -42 -35 -106q-76 -135 -181 -283q-107 -154 -180 -235l-104 -27l-8 22q134 87 235 224q-2 136 -31 326q-9 62 -21 62q-6 0 -23 -16.5t-35 -41.5l-17 23q27 43 60 75
t58 32q39 0 51 -117q12 -92 23 -257z" />
    <glyph glyph-name="z" unicode="z" horiz-adv-x="418" 
d="M421 463l20 -21q-12 -15 -58 -67q-29 -33 -75 -81l-113 -117l-82 -85q29 3 76 -16q70 -24 90 -24q46 0 102 85l22 -18q-39 -77 -71 -108t-66 -31q-33 0 -134 48q-41 21 -62 6q-16 -10 -32 -34q-7 -10 -12 -9q-10 5 -12.5 15t9 32.5t39.5 52.5l278 286q-32 -6 -62 -3
q-52 6 -95 6q-32 0 -53 -20.5t-46 -64.5l-25 12q22 50 41 81q37 59 73 59q34 0 106 -12q51 -10 81 -10q26 0 61 38z" />
    <glyph glyph-name="braceleft" unicode="{" horiz-adv-x="338" 
d="M383 710l-2 -27q-50 -6 -71 -28.5t-28 -62.5q-6 -31 -10 -95q-3 -73 -9 -109q-19 -97 -102 -115l-1 -4q62 -15 62 -83q0 -20 -5.5 -42.5t-15.5 -53t-14 -45.5q-1 -5 -7.5 -26.5t-10 -34t-7 -31t-3.5 -31.5q0 -54 67 -63l-6 -27q-123 0 -123 95q0 43 32 152q27 94 27 117
q0 55 -73 60l6 29q30 2 50.5 10.5t30.5 23.5t14 26t8 29t10 89q7 75 17 123q24 124 164 124z" />
    <glyph glyph-name="bar" unicode="|" horiz-adv-x="239" 
d="M164 -250h-63v1000h63v-1000z" />
    <glyph glyph-name="braceright" unicode="}" horiz-adv-x="338" 
d="M292 285l-6 -28q-30 -2 -50.5 -10.5t-30.5 -24t-13.5 -26t-7.5 -28.5q-4 -17 -10 -89q-7 -75 -17 -123q-23 -124 -166 -124l4 27q49 7 70 29.5t28 60.5q7 42 11 96q7 98 9 109q19 97 100 115l1 4q-66 17 -60 97q1 17 6 37.5t15 50t13 39.5q25 88 26 108q5 68 -66 78l7 27
q24 0 44 -4t40.5 -15t30.5 -33.5t7 -55.5q-1 -37 -31 -139q-25 -86 -26 -104q-3 -30 14 -50.5t58 -23.5z" />
    <glyph glyph-name="asciitilde" unicode="~" horiz-adv-x="563" 
d="M504 294l37 -20q-16 -54 -48.5 -83.5t-78.5 -29.5q-48 0 -128 46q-52 31 -90 31q-58 0 -90 -84l-36 25q44 109 131 109q50 0 114 -37q68 -40 105 -40q29 0 48.5 19.5t35.5 63.5z" />
    <glyph glyph-name="uni00A0" unicode="&#xa0;" horiz-adv-x="229" 
 />
    <glyph glyph-name="exclamdown" unicode="&#xa1;" horiz-adv-x="258" 
d="M223 393q0 -29 -17.5 -47t-43.5 -18q-23 0 -37.5 15.5t-14.5 40.5q0 29 18 46.5t44 17.5q22 0 36.5 -16t14.5 -39zM48 -229q-27 0 -38.5 6.5t-9.5 22.5q2 11 22 79l101 360q4 5 16.5 5t14.5 -5l-38 -359q-6 -65 -9 -81q-5 -28 -59 -28z" />
    <glyph glyph-name="cent" unicode="&#xa2;" horiz-adv-x="477" 
d="M369 620l-16 -80q68 0 104 -32q13 -10 13 -26q0 -14 -12.5 -27t-23.5 -13q-10 0 -16 9q-32 40 -74 45l-66 -346q10 -2 13 -2q66 0 131 54l15 -22q-78 -81 -170 -88l-19 -97h-35l19 98q-69 6 -114.5 54t-45.5 129q0 99 73 173t172 89l16 82h36zM243 156l66 343
q-73 -1 -114 -58.5t-41 -141.5q0 -59 25.5 -96t63.5 -47z" />
    <glyph glyph-name="sterling" unicode="&#xa3;" horiz-adv-x="477" 
d="M379 296h-164q-8 -67 -36.5 -112t-78.5 -85q43 0 105 -30q78 -35 118 -35q58 0 64 45q3 15 -2 33q-3 12 6 23q22 25 39 25q10 0 14.5 -13.5t0.5 -32.5q-4 -29 -27.5 -59t-55.5 -50q-51 -32 -93 -32q-9 0 -18.5 1.5t-20.5 5t-18.5 6.5t-20.5 10l-18 8l-21 12l-18 10
q-42 24 -64 24q-24 0 -49 -42q-6 -12 -14 -12q-30 14 -5 46q17 23 57 59q67 62 71 195h-88l7 36h83q2 44 6 82q18 111 105 178q59 44 110 44q31 0 56 -14t32 -28q9 -16 0 -30q-4 -8 -20 -22q-15 -8 -26 4q-43 41 -83 41q-72 0 -86 -99q-7 -45 -9 -156h170z" />
    <glyph glyph-name="currency" unicode="&#xa4;" horiz-adv-x="477" 
d="M474 135l-42 -41l-64 75q-48 -38 -109 -38t-108 38l-65 -75l-40 41l70 67q-44 52 -44 123q0 73 44 123l-70 68l40 40l65 -75q48 38 109 38q60 0 107 -38l65 75l42 -40l-71 -68q44 -52 44 -123q0 -70 -44 -123zM260 470q-54 0 -90.5 -40.5t-36.5 -104.5t36.5 -104.5
t90.5 -40.5t90 40.5t36 104.5t-36 104.5t-90 40.5z" />
    <glyph glyph-name="yen" unicode="&#xa5;" horiz-adv-x="477" 
d="M547 623l-6 -26q-38 -5 -56.5 -16.5t-46.5 -50.5q-48 -67 -135 -199h109l-8 -35h-117l-15 -72h120l-8 -35h-119l-15 -88q-10 -48 0.5 -58t69.5 -16l-6 -27h-238l6 27q55 4 68.5 15t23.5 59l17 88h-114l8 35h112l14 72h-113l7 35h104q-17 78 -54 215q-8 29 -21.5 38.5
t-50.5 12.5l6 26h202l-6 -26l-30 -4q-19 -3 -24 -10t-1 -27q6 -31 22.5 -102t23.5 -105q112 175 128 202q12 23 8 31.5t-27 11.5l-27 3l6 26h183z" />
    <glyph glyph-name="brokenbar" unicode="&#xa6;" horiz-adv-x="239" 
d="M164 325h-63v350h63v-350zM164 -175h-63v350h63v-350z" />
    <glyph glyph-name="section" unicode="&#xa7;" horiz-adv-x="467" 
d="M423 215q0 -116 -128 -230q-83 -73 -163 -87q-41 0 -70 23q-17 14 -16 30q1 18 29 37q13 5 18 -2q46 -32 83 -32q31 0 57 18t27 49q0 45 -52 101q-12 13 -26 30l-28 34l-19 23q-62 72 -62 142q0 104 111 204q79 74 162 89q46 0 71 -25q11 -11 11 -25q-1 -11 -9.5 -21
t-16.5 -14q-9 -5 -17 1l-8 6q-8 7 -13 10t-14.5 8t-21.5 7.5t-25 2.5q-33 0 -53 -19.5t-20 -43.5q0 -31 31 -68l82 -88q80 -82 80 -160zM182 508l-2 2q-52 -49 -52 -120q0 -65 51 -122l49 -55q55 -62 70 -97q16 -36 10 -75l2 -1q52 56 52 127q0 73 -53 134l-94 108
q-40 46 -33 99z" />
    <glyph glyph-name="dieresis" unicode="&#xa8;" 
d="M188 631q18 0 28 -12t10 -30q0 -24 -14 -39.5t-36 -15.5q-17 0 -28 11.5t-11 29.5q0 20 14 38t37 18zM364 631q18 0 28 -12t10 -30q0 -24 -14 -39.5t-36 -15.5q-17 0 -28 11.5t-11 29.5q0 20 14 38t37 18z" />
    <glyph glyph-name="copyright" unicode="&#xa9;" horiz-adv-x="693" 
d="M371 626q129 0 215 -88t86 -216t-86 -215.5t-215 -87.5t-215 87.5t-86 215.5t86.5 216t214.5 88zM372 592q-110 0 -182.5 -77t-72.5 -192t72.5 -192.5t182.5 -77.5q109 0 181.5 77.5t72.5 192.5q0 114 -72.5 191.5t-181.5 77.5zM501 263l23 -5q-19 -77 -25 -90
q-57 -19 -106 -19q-91 0 -140.5 50.5t-49.5 119.5q0 81 56.5 129t137.5 48q61 0 105 -17q1 -6 11 -91l-22 -4q-17 42 -40 62.5t-61 20.5q-53 0 -83.5 -39t-30.5 -102q0 -65 33.5 -106t83.5 -41q70 0 108 84z" />
    <glyph glyph-name="ordfeminine" unicode="&#xaa;" horiz-adv-x="331" 
d="M340 355l9 -20q-25 -27 -54 -45.5t-43 -18.5q-28 0 -17 50l12 55h-3q-35 -43 -80 -76q-41 -29 -62 -29q-36 0 -36 67q0 45 21 91t49 71q24 21 60.5 36.5t69.5 15.5q15 0 35 -4q14 -3 34 -3q-29 -123 -39 -191q-4 -28 2 -28q13 0 42 29zM233 519q-20 0 -34 -8
q-25 -13 -46 -55q-23 -51 -23 -99q0 -33 14 -33q21 0 58 39q26 27 46 59q16 23 25 88q-16 9 -40 9z" />
    <glyph glyph-name="guillemotleft" unicode="&#xab;" horiz-adv-x="446" 
d="M247 387l-108 -166l74 -167l-24 -15q-82 122 -133 182q54 51 170 182zM410 387l-109 -166l75 -167l-24 -15q-93 135 -134 182q49 46 171 182z" />
    <glyph glyph-name="logicalnot" unicode="&#xac;" horiz-adv-x="596" 
d="M539 97h-57v222h-421v49h478v-271z" />
    <glyph glyph-name="uni00AD" unicode="&#xad;" horiz-adv-x="334" 
d="M298 253l-18 -55h-230l18 55h230z" />
    <glyph glyph-name="registered" unicode="&#xae;" horiz-adv-x="313" 
d="M199 661q55 0 92.5 -38t37.5 -91q0 -52 -37.5 -90t-92.5 -38t-91.5 37t-36.5 91q0 53 37 91t91 38zM200 638q-44 0 -72.5 -30.5t-28.5 -75.5t29 -75t72 -30t72 30t29 75t-29 75.5t-72 30.5zM273 475l-3 -12q-33 0 -49 21q-13 20 -19 30q-5 7 -12 7h-4v-22q0 -9 1.5 -13
t4.5 -5t12 -2v-15h-67v15q8 1 11 1.5t5.5 2.5t2.5 5v11v68q0 13 -2.5 15.5t-15.5 3.5v15h68q48 0 48 -36q0 -24 -27 -34q13 -24 33 -45q6 -8 13 -11zM186 574v-36h8q9 0 17 4q11 8 11 21q0 23 -24 23q-12 0 -12 -12z" />
    <glyph glyph-name="macron" unicode="&#xaf;" 
d="M378 598l-12 -51h-224l13 51h223z" />
    <glyph glyph-name="degree" unicode="&#xb0;" horiz-adv-x="350" 
d="M236 664q57 0 95 -35.5t38 -95.5q0 -63 -43 -103t-107 -40q-57 0 -94.5 35t-37.5 94q0 62 44 103.5t105 41.5zM234 624q-38 0 -63.5 -29t-25.5 -75q0 -39 21 -64.5t57 -25.5q41 0 65.5 29.5t24.5 71.5q0 41 -21 67t-58 26z" />
    <glyph glyph-name="plusminus" unicode="&#xb1;" horiz-adv-x="596" 
d="M545 311h-214v-204h-57v204h-215v49h215v191h57v-191h214v-49zM545 0h-486v50h486v-50z" />
    <glyph glyph-name="twosuperior" horiz-adv-x="326" 
d="M309 488l21 -9q-27 -54 -39 -83h-242l3 18q59 43 117 93q29 26 45.5 43.5t33 44.5t16.5 51q0 60 -60 60q-17 0 -34.5 -10.5t-26.5 -19.5l-24 -27l-18 17l40 49q36 39 92 39q42 0 71 -26t29 -71q0 -14 -3.5 -27.5t-13 -27t-16.5 -22.5t-23 -23l-23 -19l-26 -21l-23 -18
l-62 -49v-2h93q26 0 40 7.5t33 32.5z" />
    <glyph glyph-name="threesuperior" horiz-adv-x="326" 
d="M133 664l-17 16l31 37q33 37 88 37q35 0 60.5 -19.5t25.5 -53.5q0 -41 -66 -73v-2q28 -7 48.5 -27t20.5 -51q0 -68 -85 -113q-50 -25 -90 -25q-49 0 -71 24q-12 13 -7 26q7 18 21 25q11 6 21 -4q38 -33 74 -33q29 0 49 20t20 55q0 34 -19 51t-49 17q-21 0 -37 -7l-5 24
q48 10 79 31.5t30 49.5q0 43 -46 43q-40 0 -76 -48z" />
    <glyph glyph-name="acute" unicode="&#xb4;" 
d="M382 661l-155 -170l-23 16q61 96 92 155q10 4 41.5 8t41.5 2z" />
    <glyph glyph-name="mu" unicode="&#xb5;" horiz-adv-x="511" 
d="M466 113l14 -23q-35 -42 -78 -72t-66 -30q-40 0 -16 106q6 25 19 85h-3q-74 -107 -138 -159q-39 -32 -70 -32q-30 0 -41 44h-2q-23 -76 -19 -147q1 -37 10.5 -66t20.5 -39l1 -7q-19 -31 -58 -31q-17 0 -28 18.5t-10 53.5q2 53 37 199l92 415l72 21l7 -5l-71 -307
q-8 -40 -1.5 -61.5t23.5 -21.5q35 0 96.5 71.5t96.5 136.5q20 84 35 161l70 26h11q-45 -178 -78 -349q-8 -39 3 -39q7 0 29 16t42 36z" />
    <glyph glyph-name="paragraph" unicode="&#xb6;" horiz-adv-x="488" 
d="M532 536l-35 -25l-82 -10l-92 -473q-23 -124 -101 -191q-23 -20 -51 -32.5t-41 -12.5q-42 0 -62 24q-14 14 -8 29q6 16 22 27q10 9 21 0q29 -22 63 -22q36 0 60.5 34t45.5 138l25 131l-65 -27q-6 -3 -18 -3q-52 0 -92.5 52t-40.5 124q0 109 79 179.5t184 70.5h186z" />
    <glyph glyph-name="periodcentered" unicode="&#xb7;" horiz-adv-x="235" 
d="M121 172q-22 0 -36 14.5t-14 37.5q0 28 16.5 46t42.5 18q22 0 35.5 -15.5t13.5 -38.5q0 -29 -17 -45.5t-41 -16.5z" />
    <glyph glyph-name="cedilla" unicode="&#xb8;" 
d="M203 0l-21 -25q-11 -14 -11 -21t11 -20q31 -37 30 -66q-2 -29 -36 -56.5t-85 -42.5l-13 27q67 30 70 60q1 10 -18 37q-16 18 -17.5 29t12.5 29l40 49h38z" />
    <glyph glyph-name="onesuperior" horiz-adv-x="326" 
d="M287 418l-6 -22h-190l5 22q41 4 53 12.5t19 44.5l35 181q5 29 1 35.5t-29 8.5l-28 3l5 21q58 8 133 30l-54 -279q-6 -36 3.5 -44.5t52.5 -12.5z" />
    <glyph glyph-name="ordmasculine" unicode="&#xba;" horiz-adv-x="314" 
d="M236 552q43 0 68.5 -27t25.5 -74q0 -91 -66 -143q-48 -37 -95 -37q-46 0 -70.5 29t-24.5 73q-1 53 24.5 95t64.5 64q37 20 73 20zM218 524q-6 0 -21 -5q-22 -9 -40.5 -45.5t-18.5 -96.5q0 -75 49 -75q12 0 20 4q22 8 41.5 50.5t18.5 99.5q-2 68 -49 68z" />
    <glyph glyph-name="guillemotright" unicode="&#xbb;" horiz-adv-x="446" 
d="M95 388l24 15q93 -135 134 -182q-60 -55 -171 -182l-21 16l109 166zM258 388l24 15q82 -122 133 -182q-62 -58 -170 -182l-21 16l108 166z" />
    <glyph glyph-name="onequarter" unicode="&#xbc;" horiz-adv-x="747" 
d="M662 631l-503 -658l-27 25l503 657zM273 300l-5 -23h-192l6 22q40 5 52 13.5t19 43.5l36 181q5 30 0.5 36t-29.5 8l-28 3l6 22q57 7 133 30l-54 -280q-6 -35 3.5 -43t52.5 -13zM662 133l-7 -36h-58l-5 -24q-6 -31 2.5 -39t44.5 -12l-5 -22h-176l5 22q41 4 52.5 11.5
t17.5 38.5l5 25h-162l4 24l226 237h42l-44 -225h58zM576 288h-2l-139 -155h109z" />
    <glyph glyph-name="onehalf" unicode="&#xbd;" horiz-adv-x="740" 
d="M649 631l-504 -658l-27 25l503 657zM266 300l-5 -23h-192l6 23q41 4 53 12.5t19 43.5l35 181q5 30 1 36t-29 8l-28 3l5 22q60 7 133 30l-54 -280q-6 -35 3.5 -43.5t52.5 -12.5zM657 92l20 -9q-18 -36 -38 -83h-243l4 18q74 56 116 94q29 25 46 42.5t33 44t16 51.5
q0 59 -60 59q-17 0 -34.5 -10t-26.5 -19l-24 -27l-17 17l39 49q37 40 96 40q39 0 67.5 -27t28.5 -71q0 -14 -3.5 -27.5t-12.5 -27t-16.5 -23t-23 -23t-22.5 -19.5l-26 -20l-24 -18l-61 -49v-2h92q26 0 40 7.5t34 32.5z" />
    <glyph glyph-name="threequarters" unicode="&#xbe;" horiz-adv-x="740" 
d="M674 631l-504 -658l-27 25l503 657zM144 545l-17 16l31 38q31 37 88 37q35 0 60.5 -20t25.5 -54q0 -41 -66 -73v-2q28 -7 48.5 -27t20.5 -51q0 -68 -83 -113q-50 -25 -92 -25q-48 0 -70 24q-12 14 -8 26q7 18 21 25q10 7 21 -4q40 -35 73 -35q29 0 49.5 21t20.5 56
q0 33 -19.5 50.5t-48.5 17.5q-21 0 -37 -7l-6 24q48 10 79 31.5t31 49.5q0 43 -47 43q-40 0 -75 -48zM671 133l-6 -36h-58l-5 -24q-6 -31 2 -39t44 -12l-4 -22h-176l4 22q42 4 53.5 11.5t17.5 38.5l4 25h-162l5 24q128 140 226 237h41l-44 -225h58zM584 288l-139 -155h109z
" />
    <glyph glyph-name="questiondown" unicode="&#xbf;" horiz-adv-x="358" 
d="M231 449q22 0 36.5 -16t14.5 -40q0 -29 -17.5 -47t-42.5 -18q-23 0 -37.5 15.5t-14.5 40.5q0 29 18 47t43 18zM165 223l18 20q34 -19 61.5 -50t27.5 -65q0 -62 -107 -127q-80 -49 -102 -74q-20 -22 -20 -43q0 -23 15.5 -36.5t40.5 -13.5q29 0 55 12.5t41 25t18 12.5
q12 0 23 -12.5t11 -27.5q0 -21 -28 -40q-47 -33 -92 -33q-53 0 -92.5 43.5t-39.5 102.5q0 64 66 108q10 6 27 17l24 16l22 14l20 14l15 14l13 12l10 14l6 14l2 14q0 34 -35 69z" />
    <glyph glyph-name="Agrave" unicode="&#xc0;" horiz-adv-x="664" 
d="M621 27l-7 -27h-236l7 27q50 5 61 16t6 45l-25 148h-209q-50 -94 -70 -136q-21 -45 -12 -56.5t67 -16.5l-6 -27h-215l7 27q47 6 65 20.5t53 75.5l301 533l31 8l28 -177q26 -166 64 -373q9 -54 23 -68t67 -19zM421 278l-40 259h-2q-115 -212 -139 -259h181zM472 709
l-14 -25l-189 63l-2 7q3 12 18 32.5t24 24.5z" />
    <glyph glyph-name="Aacute" unicode="&#xc1;" horiz-adv-x="664" 
d="M621 27l-7 -27h-236l7 27q50 5 61 16t6 45l-25 148h-209q-50 -94 -70 -136q-21 -45 -12 -56.5t67 -16.5l-6 -27h-215l7 27q47 6 65 20.5t53 75.5l301 533l31 8l28 -177q26 -166 64 -373q9 -54 23 -68t67 -19zM421 278l-40 259h-2q-115 -212 -139 -259h181zM570 755l-2 -8
l-187 -63l-13 24l161 102q9 -2 24 -22.5t17 -32.5z" />
    <glyph glyph-name="Acircumflex" unicode="&#xc2;" horiz-adv-x="664" 
d="M621 27l-7 -27h-236l7 27q50 5 61 16t6 45l-25 148h-209q-50 -94 -70 -136q-21 -45 -12 -56.5t67 -16.5l-6 -27h-215l7 27q47 6 65 20.5t53 75.5l301 533l31 8l28 -177q26 -166 64 -373q9 -54 23 -68t67 -19zM421 278l-40 259h-2q-115 -212 -139 -259h181zM558 706
l-18 -22q-47 19 -107 58q-75 -41 -126 -58l-12 22q82 55 135 104h25q41 -49 103 -104z" />
    <glyph glyph-name="Atilde" unicode="&#xc3;" horiz-adv-x="664" 
d="M621 27l-7 -27h-236l7 27q50 5 61 16t6 45l-25 148h-209q-50 -94 -70 -136q-21 -45 -12 -56.5t67 -16.5l-6 -27h-215l7 27q47 6 65 20.5t53 75.5l301 533l31 8l28 -177q26 -166 64 -373q9 -54 23 -68t67 -19zM421 278l-40 259h-2q-115 -212 -139 -259h181zM537 792
l25 -16q-29 -80 -81 -80q-16 0 -68 23q-28 12 -41 12q-25 0 -47 -44l-25 18q32 80 80 80q20 0 59 -18q39 -16 52 -16q22 0 46 41z" />
    <glyph glyph-name="Adieresis" unicode="&#xc4;" horiz-adv-x="664" 
d="M621 27l-7 -27h-236l7 27q50 5 61 16t6 45l-25 148h-209q-50 -94 -70 -136q-21 -45 -12 -56.5t67 -16.5l-6 -27h-215l7 27q47 6 65 20.5t53 75.5l301 533l31 8l28 -177q26 -166 64 -373q9 -54 23 -68t67 -19zM421 278l-40 259h-2q-115 -212 -139 -259h181zM339 789
q18 0 28.5 -12t10.5 -30q0 -23 -14.5 -39t-35.5 -16q-17 0 -28 11.5t-12 29.5q0 21 14 38.5t37 17.5zM525 789q18 0 28.5 -12t10.5 -30q0 -23 -14.5 -39t-36.5 -16q-17 0 -28 11.5t-11 29.5q0 21 14 38.5t37 17.5z" />
    <glyph glyph-name="Aring" unicode="&#xc5;" horiz-adv-x="664" 
d="M621 27l-7 -27h-236l7 27q50 5 61 16t6 45l-25 148h-209q-50 -94 -70 -136q-21 -45 -12 -56.5t67 -16.5l-6 -27h-215l7 27q47 6 65 20.5t53 75.5l301 533l31 8l28 -177q26 -166 64 -373q9 -54 23 -68t67 -19zM421 278l-40 259h-2q-115 -212 -139 -259h181zM520 774
q-1 -38 -29.5 -62t-65.5 -24q-35 0 -57.5 22t-21.5 56q1 40 28.5 65t65.5 25q34 0 57.5 -22.5t22.5 -59.5zM475 775q1 22 -9 35.5t-29 13.5q-20 0 -32.5 -15.5t-13.5 -39.5q-1 -21 9.5 -34t28.5 -13q19 0 32 15t14 38z" />
    <glyph glyph-name="AE" unicode="&#xc6;" horiz-adv-x="864" 
d="M850 499l-29 -2q-2 62 -14 88q-9 18 -28.5 24.5t-73.5 6.5h-75q-25 0 -31 -5.5t-11 -32.5l-46 -243h97q62 0 80.5 12t36.5 62h29l-38 -191h-29q1 55 -12 67t-77 12h-94l-29 -157q-13 -76 5 -92q19 -14 103 -14q56 0 82.5 6.5t47.5 26.5q31 28 67 95l28 -10q-1 -2 -27 -68
t-35 -84h-469l6 26q63 6 79 20t28 76l35 175h-175q-102 -150 -134 -207q-18 -32 -14 -42.5t36 -15.5l31 -5l-6 -27h-231l6 27q48 6 70.5 19.5t57.5 60.5l332 468q16 23 11.5 30t-36.5 11l-53 5l8 28h508zM308 335h155l56 280q-13 0 -30 -16z" />
    <glyph glyph-name="Ccedilla" unicode="&#xc7;" horiz-adv-x="637" 
d="M308 -51l31 37q-120 3 -195.5 78.5t-75.5 205.5q0 172 117 283t300 111q71 0 169 -28q-1 -15 -3.5 -72t-4.5 -85l-30 -3q-4 86 -43 120t-111 34q-131 0 -214 -105t-83 -249q0 -116 51.5 -186t143.5 -69q72 0 122 40t101 118l26 -12q-38 -100 -76 -157q-5 -1 -25 -6
l-36 -8l-44 -6l-54 -4l-10 -12q-11 -15 -11.5 -22t11.5 -21q32 -38 31 -68t-36.5 -58t-88.5 -43l-10 25q69 32 72 61q1 16 -19 40q-17 19 -18.5 30.5t13.5 30.5z" />
    <glyph glyph-name="Egrave" unicode="&#xc8;" horiz-adv-x="559" 
d="M128 649h435q-3 -18 -19 -153l-29 -2q-2 65 -13 88q-9 19 -27.5 26.5t-69.5 7.5h-78q-25 0 -31.5 -6.5t-12.5 -34.5l-41 -217h96q62 0 79 11.5t35 61.5h29l-38 -189h-28q2 54 -10 65.5t-75 11.5h-96l-33 -175q-15 -80 5 -96q18 -14 101 -14q55 0 83 7t48 27q29 28 67 96
l28 -10l-17 -42l-26 -66l-19 -46h-468l6 27q61 5 77 19t28 74l79 410q12 60 1.5 73.5t-72.5 19.5zM439 710l-13 -26l-189 64l-2 7q3 12 18 32.5t24 24.5z" />
    <glyph glyph-name="Eacute" unicode="&#xc9;" horiz-adv-x="559" 
d="M128 649h435q-3 -18 -19 -153l-29 -2q-2 65 -13 88q-9 19 -27.5 26.5t-69.5 7.5h-78q-25 0 -31.5 -6.5t-12.5 -34.5l-41 -217h96q62 0 79 11.5t35 61.5h29l-38 -189h-28q2 54 -10 65.5t-75 11.5h-96l-33 -175q-15 -80 5 -96q18 -14 101 -14q55 0 83 7t48 27q29 28 67 96
l28 -10l-17 -42l-26 -66l-19 -46h-468l6 27q61 5 77 19t28 74l79 410q12 60 1.5 73.5t-72.5 19.5zM513 755l-2 -8l-188 -63l-13 25l161 102q9 -3 24 -23t18 -33z" />
    <glyph glyph-name="Ecircumflex" unicode="&#xca;" horiz-adv-x="559" 
d="M128 649h435q-3 -18 -19 -153l-29 -2q-2 65 -13 88q-9 19 -27.5 26.5t-69.5 7.5h-78q-25 0 -31.5 -6.5t-12.5 -34.5l-41 -217h96q62 0 79 11.5t35 61.5h29l-38 -189h-28q2 54 -10 65.5t-75 11.5h-96l-33 -175q-15 -80 5 -96q18 -14 101 -14q55 0 83 7t48 27q29 28 67 96
l28 -10l-17 -42l-26 -66l-19 -46h-468l6 27q61 5 77 19t28 74l79 410q12 60 1.5 73.5t-72.5 19.5zM505 706l-19 -22q-48 20 -106 58q-77 -41 -126 -58l-13 22q77 50 136 104h24q43 -51 104 -104z" />
    <glyph glyph-name="Edieresis" unicode="&#xcb;" horiz-adv-x="559" 
d="M128 649h435q-3 -18 -19 -153l-29 -2q-2 65 -13 88q-9 19 -27.5 26.5t-69.5 7.5h-78q-25 0 -31.5 -6.5t-12.5 -34.5l-41 -217h96q62 0 79 11.5t35 61.5h29l-38 -189h-28q2 54 -10 65.5t-75 11.5h-96l-33 -175q-15 -80 5 -96q18 -14 101 -14q55 0 83 7t48 27q29 28 67 96
l28 -10l-17 -42l-26 -66l-19 -46h-468l6 27q61 5 77 19t28 74l79 410q12 60 1.5 73.5t-72.5 19.5zM292 789q19 0 29 -12t10 -30q0 -23 -14.5 -39t-35.5 -16q-17 0 -28 11.5t-11 29.5q0 21 13.5 38.5t36.5 17.5zM478 789q19 0 29 -12t10 -30q0 -23 -14.5 -39t-35.5 -16
q-17 0 -28 11.5t-11 29.5q0 21 13.5 38.5t36.5 17.5z" />
    <glyph glyph-name="Igrave" unicode="&#xcc;" horiz-adv-x="335" 
d="M380 649l-6 -26q-58 -6 -72 -18.5t-25 -67.5l-81 -421q-11 -58 0 -71t73 -18l-6 -27h-256l7 27q58 4 73.5 18t26.5 71l81 421q10 54 -1.5 67t-74.5 19l7 26h254zM329 709l-14 -25l-189 63l-2 7q3 12 18 32.5t24 24.5z" />
    <glyph glyph-name="Iacute" unicode="&#xcd;" horiz-adv-x="335" 
d="M380 649l-6 -26q-58 -6 -72 -18.5t-25 -67.5l-81 -421q-11 -58 0 -71t73 -18l-6 -27h-256l7 27q58 4 73.5 18t26.5 71l81 421q10 54 -1.5 67t-74.5 19l7 26h254zM398 755l-2 -8l-188 -63l-13 24l161 102q9 -2 24.5 -22.5t17.5 -32.5z" />
    <glyph glyph-name="Icircumflex" unicode="&#xce;" horiz-adv-x="335" 
d="M380 649l-6 -26q-58 -6 -72 -18.5t-25 -67.5l-81 -421q-11 -58 0 -71t73 -18l-6 -27h-256l7 27q58 4 73.5 18t26.5 71l81 421q10 54 -1.5 67t-74.5 19l7 26h254zM390 706l-18 -22q-51 21 -107 58q-77 -41 -126 -58l-13 22q77 50 136 104h25q41 -51 103 -104z" />
    <glyph glyph-name="Idieresis" unicode="&#xcf;" horiz-adv-x="335" 
d="M380 649l-6 -26q-58 -6 -72 -18.5t-25 -67.5l-81 -421q-11 -58 0 -71t73 -18l-6 -27h-256l7 27q58 4 73.5 18t26.5 71l81 421q10 54 -1.5 67t-74.5 19l7 26h254zM176 789q18 0 28.5 -12t10.5 -30q0 -23 -14.5 -39t-36.5 -16q-17 0 -28 11.5t-11 29.5q0 21 14 38.5
t37 17.5zM362 789q18 0 28 -12t10 -30q0 -23 -14 -39t-36 -16q-17 0 -28 11.5t-11 29.5q0 21 14 38.5t37 17.5z" />
    <glyph glyph-name="Eth" unicode="&#xd0;" horiz-adv-x="719" 
d="M139 649h248q149 0 234.5 -65.5t85.5 -202.5q0 -94 -44 -174.5t-123 -131.5q-118 -75 -308 -75h-214l7 27q58 6 72.5 19t26.5 72l39 203h-109l8 37h108l33 168q6 35 7.5 51t-8 26.5t-22.5 13t-48 6.5zM245 321l-35 -185q-8 -43 -5.5 -60.5t17.5 -26.5q23 -13 68 -13
q66 0 120.5 20.5t91 55t62 80t36.5 95t11 101.5q0 101 -53 164.5t-173 63.5q-52 0 -71 -8q-15 -8 -22 -39l-40 -211h155l-8 -37h-154z" />
    <glyph glyph-name="Ntilde" unicode="&#xd1;" horiz-adv-x="705" 
d="M766 649l-6 -26q-44 -3 -60.5 -16t-26.5 -47q-16 -54 -38 -170l-76 -398h-30l-296 530h-3l-52 -266q-23 -115 -26 -168q-1 -34 15.5 -45.5t69.5 -15.5l-6 -27h-229l6 27q40 2 59 14.5t29 43.5q17 50 42 174l52 246q7 39 5.5 54.5t-11.5 32.5q-9 16 -26 22t-59 9l6 26h144
l295 -509h4l46 250q23 119 27 171q2 35 -14.5 46.5t-72.5 15.5l7 26h225zM551 787l25 -16q-29 -80 -80 -80q-18 0 -68 23q-28 12 -41 12q-26 0 -48 -44l-24 18q31 80 80 80q19 0 59 -18q37 -16 51 -16q23 0 46 41z" />
    <glyph glyph-name="Ograve" unicode="&#xd2;" horiz-adv-x="708" 
d="M430 665q119 0 192.5 -80t73.5 -207q0 -162 -104 -277.5t-260 -115.5q-118 0 -192 78.5t-74 205.5q0 160 105.5 278t258.5 118zM422 630q-75 0 -136 -56.5t-92.5 -140.5t-31.5 -173q0 -106 45 -173t133 -67q79 0 140.5 58.5t91 141.5t29.5 168q0 108 -43.5 175t-135.5 67
zM516 718l-14 -25l-189 63l-2 7q3 12 18 32.5t24 24.5z" />
    <glyph glyph-name="Oacute" unicode="&#xd3;" horiz-adv-x="708" 
d="M430 665q119 0 192.5 -80t73.5 -207q0 -162 -104 -277.5t-260 -115.5q-118 0 -192 78.5t-74 205.5q0 160 105.5 278t258.5 118zM422 630q-75 0 -136 -56.5t-92.5 -140.5t-31.5 -173q0 -106 45 -173t133 -67q79 0 140.5 58.5t91 141.5t29.5 168q0 108 -43.5 175t-135.5 67
zM559 764l-3 -8l-187 -63l-13 24l161 102q9 -2 24 -22.5t18 -32.5z" />
    <glyph glyph-name="Ocircumflex" unicode="&#xd4;" horiz-adv-x="708" 
d="M430 665q119 0 192.5 -80t73.5 -207q0 -162 -104 -277.5t-260 -115.5q-118 0 -192 78.5t-74 205.5q0 160 105.5 278t258.5 118zM422 630q-75 0 -136 -56.5t-92.5 -140.5t-31.5 -173q0 -106 45 -173t133 -67q79 0 140.5 58.5t91 141.5t29.5 168q0 108 -43.5 175t-135.5 67
zM564 715l-18 -23q-53 24 -107 58q-68 -37 -126 -58l-13 23q80 50 136 104l25 -1q41 -48 103 -103z" />
    <glyph glyph-name="Otilde" unicode="&#xd5;" horiz-adv-x="708" 
d="M430 665q119 0 192.5 -80t73.5 -207q0 -162 -104 -277.5t-260 -115.5q-118 0 -192 78.5t-74 205.5q0 160 105.5 278t258.5 118zM422 630q-75 0 -136 -56.5t-92.5 -140.5t-31.5 -173q0 -106 45 -173t133 -67q79 0 140.5 58.5t91 141.5t29.5 168q0 108 -43.5 175t-135.5 67
zM547 801l25 -16q-29 -80 -81 -80q-10 0 -18.5 2.5t-27 10.5t-22.5 10q-26 13 -41 13q-24 0 -47 -44l-25 17q32 80 80 80q20 0 60 -18q37 -16 51 -16q22 0 46 41z" />
    <glyph glyph-name="Odieresis" unicode="&#xd6;" horiz-adv-x="708" 
d="M430 665q119 0 192.5 -80t73.5 -207q0 -162 -104 -277.5t-260 -115.5q-118 0 -192 78.5t-74 205.5q0 160 105.5 278t258.5 118zM422 630q-75 0 -136 -56.5t-92.5 -140.5t-31.5 -173q0 -106 45 -173t133 -67q79 0 140.5 58.5t91 141.5t29.5 168q0 108 -43.5 175t-135.5 67
zM349 799q19 0 29 -12.5t10 -30.5q0 -22 -14.5 -38.5t-35.5 -16.5q-17 0 -28 11.5t-11 29.5q0 21 14 39t36 18zM535 799q19 0 29 -12.5t10 -30.5q0 -22 -14.5 -38.5t-35.5 -16.5q-17 0 -28 11.5t-11 29.5q0 21 13.5 39t36.5 18z" />
    <glyph glyph-name="multiply" unicode="&#xd7;" horiz-adv-x="596" 
d="M536 47l-37 -37l-195 199l-195 -199l-35 37l193 200l-193 197l35 38l195 -198l195 200l37 -37l-195 -200z" />
    <glyph glyph-name="Oslash" unicode="&#xd8;" horiz-adv-x="708" 
d="M630 693l28 -21l-51 -71q89 -79 89 -222q0 -164 -105 -279t-263 -115q-81 0 -142 41l-51 -69l-26 24l48 66q-91 81 -91 221q0 160 106 278.5t259 118.5q86 0 147 -43zM199 104l346 472q-37 54 -121 54q-77 0 -139 -56.5t-93.5 -139.5t-31.5 -171q0 -102 39 -159zM565 545
l-344 -472q44 -53 118 -53q79 0 141 58t92 140t30 168q0 100 -37 159z" />
    <glyph glyph-name="Ugrave" unicode="&#xd9;" horiz-adv-x="707" 
d="M773 649l-6 -26q-47 -3 -63.5 -14t-24.5 -41q-17 -59 -40 -180l-15 -77q-38 -185 -119 -260q-70 -66 -170 -66q-96 0 -154 54q-77 72 -45 242l48 253q11 58 1 70.5t-70 18.5l6 26h248l-6 -26q-58 -6 -72 -18.5t-25 -71.5l-46 -244q-25 -129 16 -190t122 -61
q89 0 143 67.5t83 213.5l14 69q24 123 27 180q1 30 -16 40.5t-72 14.5l6 26h230zM523 709l-13 -25l-189 63l-2 7q3 12 18 32.5t24 24.5z" />
    <glyph glyph-name="Uacute" unicode="&#xda;" horiz-adv-x="707" 
d="M773 649l-6 -26q-47 -3 -63.5 -14t-24.5 -41q-17 -59 -40 -180l-15 -77q-38 -185 -119 -260q-70 -66 -170 -66q-96 0 -154 54q-77 72 -45 242l48 253q11 58 1 70.5t-70 18.5l6 26h248l-6 -26q-58 -6 -72 -18.5t-25 -71.5l-46 -244q-25 -129 16 -190t122 -61
q89 0 143 67.5t83 213.5l14 69q24 123 27 180q1 30 -16 40.5t-72 14.5l6 26h230zM598 755l-3 -8l-187 -63l-13 24l161 102q9 -2 24 -22.5t18 -32.5z" />
    <glyph glyph-name="Ucircumflex" unicode="&#xdb;" horiz-adv-x="707" 
d="M773 649l-6 -26q-47 -3 -63.5 -14t-24.5 -41q-17 -59 -40 -180l-15 -77q-38 -185 -119 -260q-70 -66 -170 -66q-96 0 -154 54q-77 72 -45 242l48 253q11 58 1 70.5t-70 18.5l6 26h248l-6 -26q-58 -6 -72 -18.5t-25 -71.5l-46 -244q-25 -129 16 -190t122 -61
q89 0 143 67.5t83 213.5l14 69q24 123 27 180q1 30 -16 40.5t-72 14.5l6 26h230zM589 709l-18 -22q-47 19 -107 58q-79 -42 -126 -58l-13 22q75 48 136 104h25q41 -49 103 -104z" />
    <glyph glyph-name="Udieresis" unicode="&#xdc;" horiz-adv-x="707" 
d="M773 649l-6 -26q-47 -3 -63.5 -14t-24.5 -41q-17 -59 -40 -180l-15 -77q-38 -185 -119 -260q-70 -66 -170 -66q-96 0 -154 54q-77 72 -45 242l48 253q11 58 1 70.5t-70 18.5l6 26h248l-6 -26q-58 -6 -72 -18.5t-25 -71.5l-46 -244q-25 -129 16 -190t122 -61
q89 0 143 67.5t83 213.5l14 69q24 123 27 180q1 30 -16 40.5t-72 14.5l6 26h230zM370 789q19 0 29 -12t10 -30q0 -23 -14.5 -39t-35.5 -16q-17 0 -28 11.5t-11 29.5q0 21 13.5 38.5t36.5 17.5zM556 789q19 0 29 -12t10 -30q0 -23 -14.5 -39t-35.5 -16q-17 0 -28 11.5
t-11 29.5q0 21 13.5 38.5t36.5 17.5z" />
    <glyph glyph-name="Yacute" unicode="&#xdd;" horiz-adv-x="611" 
d="M686 649l-7 -26q-48 -5 -68 -17t-58 -59q-54 -69 -164 -225q-18 -24 -24 -57l-28 -141q-12 -64 -0.5 -77.5t79.5 -19.5l-6 -27h-267l7 27q61 5 76.5 19t28.5 78l27 135q5 28 -5 59l-89 234q-17 44 -31 54.5t-61 16.5l6 26h232l-7 -26l-35 -5q-26 -4 -30.5 -12t3.5 -30
q39 -114 91 -241q113 155 161 235q15 26 10 35t-33 13l-31 4l7 27h216zM537 755l-2 -8l-187 -63l-13 24l161 102q9 -2 24 -22.5t17 -32.5z" />
    <glyph glyph-name="Thorn" unicode="&#xde;" horiz-adv-x="541" 
d="M268 0h-257l6 26q58 6 72 18t24 67l82 423q11 55 1.5 69t-67.5 20l6 26h237l-6 -26q-57 -6 -69.5 -21.5t-27.5 -100.5h71q93 0 144.5 -39t51.5 -116q0 -92 -71 -143t-167 -52q-21 0 -36 5l-57 15l-12 -60q-10 -54 2.5 -66.5t78.5 -18.5zM254 432l-42 -228q37 -14 78 -14
q58 0 107 38t49 121q0 120 -134 121q-24 0 -42 -6q-10 -4 -16 -32z" />
    <glyph glyph-name="germandbls" unicode="&#xdf;" horiz-adv-x="512" 
d="M82 433h58q16 75 42 126t73 92q72 61 147 61q57 0 90 -33.5t33 -87.5q0 -35 -15 -61q-119 -84 -119 -154q0 -32 33 -84q47 -73 47 -125q0 -68 -64.5 -123.5t-132.5 -55.5q-31 0 -58 18t-27 39q0 20 23 35q12 8 22 -1q44 -42 86 -42q37 0 59.5 25.5t22.5 59.5q0 44 -32 97
q-53 83 -53 121q0 39 33 80.5t97 97.5q9 24 9 52q0 47 -23 75t-63 28q-100 1 -143 -193q-8 -36 -23 -133q-4 -23 -15 -94t-20 -121q-42 -235 -125 -323q-31 -33 -62 -49.5t-50 -16.5q-21 0 -39.5 12t-18.5 28q0 22 27 44q12 8 21 1q26 -22 56 -22q25 0 41 21q34 41 66 251
l48 314h-76l-4 13z" />
    <glyph glyph-name="agrave" unicode="&#xe0;" horiz-adv-x="490" 
d="M453 116l12 -24q-37 -46 -80.5 -75t-65.5 -29q-35 0 -18 88l20 95h-2q-55 -78 -129 -138q-55 -45 -93 -45q-22 0 -40 29t-18 84q0 76 33 151t87 120q40 33 90.5 55t95.5 22q25 0 62 -7q28 -6 38 -6l3 -4q-34 -132 -69 -325q-9 -43 2 -43q7 0 29.5 16t42.5 36zM149 52
q28 0 93.5 71t92.5 125q7 27 33 144q-28 14 -67 14q-44 0 -71 -21q-49 -36 -78.5 -112.5t-29.5 -154.5q0 -32 8 -49t19 -17zM363 500l-29 -9q-63 120 -89 164l3 9q8 3 35 8t38 4q6 -29 23 -98z" />
    <glyph glyph-name="aacute" unicode="&#xe1;" horiz-adv-x="490" 
d="M453 116l12 -24q-37 -46 -80.5 -75t-65.5 -29q-35 0 -18 88l20 95h-2q-55 -78 -129 -138q-55 -45 -93 -45q-22 0 -40 29t-18 84q0 76 33 151t87 120q40 33 90.5 55t95.5 22q25 0 62 -7q28 -6 38 -6l3 -4q-34 -132 -69 -325q-9 -43 2 -43q7 0 29.5 16t42.5 36zM149 52
q28 0 93.5 71t92.5 125q7 27 33 144q-28 14 -67 14q-44 0 -71 -21q-49 -36 -78.5 -112.5t-29.5 -154.5q0 -32 8 -49t19 -17zM451 661l-155 -170l-23 16q61 96 92 155q10 4 41.5 8t41.5 2z" />
    <glyph glyph-name="acircumflex" unicode="&#xe2;" horiz-adv-x="490" 
d="M453 116l12 -24q-37 -46 -80.5 -75t-65.5 -29q-35 0 -18 88l20 95h-2q-55 -78 -129 -138q-55 -45 -93 -45q-22 0 -40 29t-18 84q0 76 33 151t87 120q40 33 90.5 55t95.5 22q25 0 62 -7q28 -6 38 -6l3 -4q-34 -132 -69 -325q-9 -43 2 -43q7 0 29.5 16t42.5 36zM149 52
q28 0 93.5 71t92.5 125q7 27 33 144q-28 14 -67 14q-44 0 -71 -21q-49 -36 -78.5 -112.5t-29.5 -154.5q0 -32 8 -49t19 -17zM420 506l-23 -17q-30 33 -71 96q-59 -59 -109 -96l-19 17q85 98 130 163h22q24 -75 70 -163z" />
    <glyph glyph-name="atilde" unicode="&#xe3;" horiz-adv-x="490" 
d="M453 116l12 -24q-37 -46 -80.5 -75t-65.5 -29q-35 0 -18 88l20 95h-2q-55 -78 -129 -138q-55 -45 -93 -45q-22 0 -40 29t-18 84q0 76 33 151t87 120q40 33 90.5 55t95.5 22q25 0 62 -7q28 -6 38 -6l3 -4q-34 -132 -69 -325q-9 -43 2 -43q7 0 29.5 16t42.5 36zM149 52
q28 0 93.5 71t92.5 125q7 27 33 144q-28 14 -67 14q-44 0 -71 -21q-49 -36 -78.5 -112.5t-29.5 -154.5q0 -32 8 -49t19 -17zM428 620l24 -12q-34 -85 -81 -85q-17 0 -67 23q-26 12 -42 12q-23 0 -48 -43l-22 15q17 43 38.5 63t41.5 20q18 0 58 -18q37 -16 52 -16q21 0 46 41
z" />
    <glyph glyph-name="adieresis" unicode="&#xe4;" horiz-adv-x="490" 
d="M453 116l12 -24q-37 -46 -80.5 -75t-65.5 -29q-35 0 -18 88l20 95h-2q-55 -78 -129 -138q-55 -45 -93 -45q-22 0 -40 29t-18 84q0 76 33 151t87 120q40 33 90.5 55t95.5 22q25 0 62 -7q28 -6 38 -6l3 -4q-34 -132 -69 -325q-9 -43 2 -43q7 0 29.5 16t42.5 36zM149 52
q28 0 93.5 71t92.5 125q7 27 33 144q-28 14 -67 14q-44 0 -71 -21q-49 -36 -78.5 -112.5t-29.5 -154.5q0 -32 8 -49t19 -17zM245 631q18 0 28 -12t10 -30q0 -24 -14 -39.5t-36 -15.5q-17 0 -28 11.5t-11 29.5q0 20 14 38t37 18zM421 631q18 0 28 -12t10 -30q0 -24 -14 -39.5
t-36 -15.5q-17 0 -28 11.5t-11 29.5q0 20 14 38t37 18z" />
    <glyph glyph-name="aring" unicode="&#xe5;" horiz-adv-x="490" 
d="M453 116l12 -24q-37 -46 -80.5 -75t-65.5 -29q-35 0 -18 88l20 95h-2q-55 -78 -129 -138q-55 -45 -93 -45q-22 0 -40 29t-18 84q0 76 33 151t87 120q40 33 90.5 55t95.5 22q25 0 62 -7q28 -6 38 -6l3 -4q-34 -132 -69 -325q-9 -43 2 -43q7 0 29.5 16t42.5 36zM149 52
q28 0 93.5 71t92.5 125q7 27 33 144q-28 14 -67 14q-44 0 -71 -21q-49 -36 -78.5 -112.5t-29.5 -154.5q0 -32 8 -49t19 -17zM331 665q35 0 59 -23.5t23 -62.5q-1 -38 -30 -62t-67 -24q-37 0 -60 22.5t-21 57.5q1 41 30 66.5t66 25.5zM327 631q-19 0 -32 -15.5t-14 -39.5
q-1 -22 9.5 -36t28.5 -14q20 0 33.5 15.5t14.5 39.5q1 22 -9.5 36t-30.5 14z" />
    <glyph glyph-name="ae" unicode="&#xe6;" horiz-adv-x="664" 
d="M613 127l16 -22q-110 -116 -217 -116q-41 0 -72 32t-31 109q0 14 2 23l-2 1q-50 -67 -119 -120q-23 -19 -50.5 -32t-45.5 -13q-21 0 -38.5 26.5t-17.5 83.5q0 77 31 152t82 119q38 34 92 56.5t98 22.5q22 0 43 -6q15 -2 39 -2l4 -4l-14 -58l2 -1q32 32 76 51.5t77 19.5
q39 0 62.5 -23t23.5 -56q0 -44 -44.5 -82.5t-101 -61.5t-123.5 -38q-1 -11 -1 -35q0 -43 17.5 -74t55.5 -31q74 0 156 79zM298 405q-44 0 -67 -15q-43 -28 -72 -96q-38 -83 -38 -174q0 -64 26 -64q15 0 41 17t51 45q59 65 82 113q27 73 39 160q-23 14 -62 14zM530 406
q-29 0 -51 -15q-68 -43 -89 -170q102 27 145 59.5t44 73.5q0 26 -13.5 39t-35.5 13z" />
    <glyph glyph-name="ccedilla" unicode="&#xe7;" horiz-adv-x="381" 
d="M336 121l14 -23q-67 -74 -142 -99l-20 -25q-11 -15 -10.5 -22t12.5 -21q33 -39 32 -68q-2 -30 -37 -58t-88 -44l-11 26q70 30 73 62q1 16 -20 39q-16 19 -17.5 30t12.5 30l32 41v1q-57 -7 -90 31t-33 109q0 67 28 135.5t77 110.5q34 30 80.5 51.5t85.5 21.5
q31 0 52.5 -15t21.5 -34q0 -23 -28 -42q-18 -14 -30 4q-27 39 -72 39q-52 0 -86 -63q-46 -84 -46 -184q0 -50 18.5 -78t52.5 -28q58 0 139 73z" />
    <glyph glyph-name="egrave" unicode="&#xe8;" 
d="M348 124l17 -23q-106 -113 -211 -113q-44 0 -77 33t-33 113q0 74 31.5 145t88.5 114q73 56 138 56q39 0 63.5 -23.5t24.5 -56.5q0 -111 -264 -177q-2 -12 -2 -32q0 -48 18 -80.5t60 -32.5q67 0 146 77zM265 408q-22 0 -41 -12q-28 -16 -55.5 -57.5t-38.5 -115.5
q185 49 185 130q0 26 -14 40.5t-36 14.5zM316 500l-29 -9l-89 164l3 9q9 3 35.5 8t37.5 4q6 -29 23 -98z" />
    <glyph glyph-name="eacute" unicode="&#xe9;" 
d="M348 124l17 -23q-106 -113 -211 -113q-44 0 -77 33t-33 113q0 74 31.5 145t88.5 114q73 56 138 56q39 0 63.5 -23.5t24.5 -56.5q0 -111 -264 -177q-2 -12 -2 -32q0 -48 18 -80.5t60 -32.5q67 0 146 77zM265 408q-22 0 -41 -12q-28 -16 -55.5 -57.5t-38.5 -115.5
q185 49 185 130q0 26 -14 40.5t-36 14.5zM413 661l-155 -170l-23 16q61 96 92 155q10 4 41.5 8t41.5 2z" />
    <glyph glyph-name="ecircumflex" unicode="&#xea;" 
d="M348 124l17 -23q-106 -113 -211 -113q-44 0 -77 33t-33 113q0 74 31.5 145t88.5 114q73 56 138 56q39 0 63.5 -23.5t24.5 -56.5q0 -111 -264 -177q-2 -12 -2 -32q0 -48 18 -80.5t60 -32.5q67 0 146 77zM265 408q-22 0 -41 -12q-28 -16 -55.5 -57.5t-38.5 -115.5
q185 49 185 130q0 26 -14 40.5t-36 14.5zM378 506l-24 -17q-33 37 -70 96q-64 -62 -109 -96l-20 17q79 89 130 163h22q24 -78 71 -163z" />
    <glyph glyph-name="edieresis" unicode="&#xeb;" 
d="M348 124l17 -23q-106 -113 -211 -113q-44 0 -77 33t-33 113q0 74 31.5 145t88.5 114q73 56 138 56q39 0 63.5 -23.5t24.5 -56.5q0 -111 -264 -177q-2 -12 -2 -32q0 -48 18 -80.5t60 -32.5q67 0 146 77zM265 408q-22 0 -41 -12q-28 -16 -55.5 -57.5t-38.5 -115.5
q185 49 185 130q0 26 -14 40.5t-36 14.5zM200 631q18 0 28 -12t10 -30q0 -24 -14 -39.5t-36 -15.5q-17 0 -28 11.5t-11 29.5q0 20 14 38t37 18zM376 631q18 0 28 -12t10 -30q0 -24 -14 -39.5t-36 -15.5q-17 0 -28 11.5t-11 29.5q0 20 14 38t37 18z" />
    <glyph glyph-name="igrave" unicode="&#xec;" horiz-adv-x="274" 
d="M224 109l13 -21q-28 -33 -74.5 -66.5t-71.5 -33.5q-37 0 -13 98l62 256q9 32 -1 32q-18 0 -68 -43l-12 23q40 39 85 67t66 28q30 0 10 -79l-68 -276q-8 -32 2 -32q16 0 70 47zM228 500l-28 -9l-89 164l3 9q9 3 35.5 8t37.5 4q5 -26 20.5 -88.5t20.5 -87.5z" />
    <glyph glyph-name="iacute" unicode="&#xed;" horiz-adv-x="274" 
d="M224 109l13 -21q-28 -33 -74.5 -66.5t-71.5 -33.5q-37 0 -13 98l62 256q9 32 -1 32q-18 0 -68 -43l-12 23q40 39 85 67t66 28q30 0 10 -79l-68 -276q-8 -32 2 -32q16 0 70 47zM335 661l-155 -170l-23 16q61 96 92 155q10 4 41.5 8t41.5 2z" />
    <glyph glyph-name="icircumflex" unicode="&#xee;" horiz-adv-x="274" 
d="M224 109l13 -21q-28 -33 -74.5 -66.5t-71.5 -33.5q-37 0 -13 98l62 256q9 32 -1 32q-18 0 -68 -43l-12 23q40 39 85 67t66 28q30 0 10 -79l-68 -276q-8 -32 2 -32q16 0 70 47zM300 506l-23 -17q-30 33 -71 96q-64 -62 -109 -96l-20 17q79 89 130 163h23q24 -75 70 -163z
" />
    <glyph glyph-name="idieresis" unicode="&#xef;" horiz-adv-x="274" 
d="M224 109l13 -21q-28 -33 -74.5 -66.5t-71.5 -33.5q-37 0 -13 98l62 256q9 32 -1 32q-18 0 -68 -43l-12 23q40 39 85 67t66 28q30 0 10 -79l-68 -276q-8 -32 2 -32q16 0 70 47zM128 631q18 0 28 -12t10 -30q0 -24 -14 -39.5t-36 -15.5q-17 0 -28 11.5t-11 29.5q0 20 14 38
t37 18zM304 631q18 0 28 -12t10 -30q0 -24 -14 -39.5t-36 -15.5q-17 0 -28 11.5t-11 29.5q0 20 14 38t37 18z" />
    <glyph glyph-name="eth" unicode="&#xf0;" horiz-adv-x="466" 
d="M475 654l-117 -63q84 -111 84 -253q0 -84 -29.5 -161.5t-81.5 -123.5q-75 -65 -157 -65q-62 0 -93.5 45.5t-31.5 107.5q0 95 42.5 165.5t101.5 104.5q68 39 125 37q14 0 38 -7q-1 23 -17 61t-32 61l-144 -77l-15 31l138 73q-16 22 -54.5 53t-74.5 42q-2 16 12 27
q37 -7 84 -33t80 -62l125 67zM212 28q14 0 27 6q43 16 83.5 98t39.5 201q0 42 -18 57q-24 19 -64 19q-25 0 -49 -12q-33 -16 -66 -78t-33 -162q0 -56 20 -92.5t60 -36.5z" />
    <glyph glyph-name="ntilde" unicode="&#xf1;" horiz-adv-x="532" 
d="M481 109l14 -24q-42 -45 -81 -71t-60 -26q-40 0 -16 104l54 222q18 72 -8 72q-32 0 -101 -71t-109 -138q-28 -116 -39 -169q-37 -7 -72 -20l-6 8q57 228 81 339q10 40 -1 40q-18 0 -65 -45l-13 24q39 43 79 69t62 26q35 0 8 -111l-21 -87h2q86 118 184 176q38 22 67 22
q56 0 22 -143l-49 -208q-8 -36 2 -36q17 0 66 47zM439 620l24 -12q-34 -85 -81 -85q-17 0 -67 23q-26 12 -42 12q-23 0 -48 -43l-22 15q17 43 38.5 63t41.5 20q18 0 58 -18q37 -16 53 -16q20 0 45 41z" />
    <glyph glyph-name="ograve" unicode="&#xf2;" horiz-adv-x="470" 
d="M178 -12q-67 0 -99.5 44.5t-32.5 111.5q0 93 43 165.5t109 107.5q61 32 108 32q63 0 98 -41t35 -115q0 -67 -28 -133.5t-79 -108.5q-75 -63 -154 -63zM214 28q17 0 32 6q43 18 76 91.5t33 165.5q0 59 -22.5 89.5t-58.5 30.5q-18 0 -38 -9q-37 -16 -71.5 -82.5
t-34.5 -170.5q0 -56 22.5 -88.5t61.5 -32.5zM336 500l-28 -9q-79 145 -90 164l4 9q9 3 35.5 8t37.5 4q5 -26 20.5 -88.5t20.5 -87.5z" />
    <glyph glyph-name="oacute" unicode="&#xf3;" horiz-adv-x="470" 
d="M178 -12q-67 0 -99.5 44.5t-32.5 111.5q0 93 43 165.5t109 107.5q61 32 108 32q63 0 98 -41t35 -115q0 -67 -28 -133.5t-79 -108.5q-75 -63 -154 -63zM214 28q17 0 32 6q43 18 76 91.5t33 165.5q0 59 -22.5 89.5t-58.5 30.5q-18 0 -38 -9q-37 -16 -71.5 -82.5
t-34.5 -170.5q0 -56 22.5 -88.5t61.5 -32.5zM423 661l-155 -170l-23 16q61 96 92 155q10 4 41.5 8t41.5 2z" />
    <glyph glyph-name="ocircumflex" unicode="&#xf4;" horiz-adv-x="470" 
d="M178 -12q-67 0 -99.5 44.5t-32.5 111.5q0 93 43 165.5t109 107.5q61 32 108 32q63 0 98 -41t35 -115q0 -67 -28 -133.5t-79 -108.5q-75 -63 -154 -63zM214 28q17 0 32 6q43 18 76 91.5t33 165.5q0 59 -22.5 89.5t-58.5 30.5q-18 0 -38 -9q-37 -16 -71.5 -82.5
t-34.5 -170.5q0 -56 22.5 -88.5t61.5 -32.5zM406 506l-23 -17q-30 33 -71 96q-64 -62 -109 -96l-20 17q79 89 130 163h23q24 -75 70 -163z" />
    <glyph glyph-name="otilde" unicode="&#xf5;" horiz-adv-x="470" 
d="M178 -12q-67 0 -99.5 44.5t-32.5 111.5q0 93 43 165.5t109 107.5q61 32 108 32q63 0 98 -41t35 -115q0 -67 -28 -133.5t-79 -108.5q-75 -63 -154 -63zM214 28q17 0 32 6q43 18 76 91.5t33 165.5q0 59 -22.5 89.5t-58.5 30.5q-18 0 -38 -9q-37 -16 -71.5 -82.5
t-34.5 -170.5q0 -56 22.5 -88.5t61.5 -32.5zM412 620l24 -12q-34 -85 -81 -85q-17 0 -67 23q-26 12 -42 12q-23 0 -48 -43l-22 15q17 43 38.5 63t41.5 20q18 0 58 -18q37 -16 53 -16q20 0 45 41z" />
    <glyph glyph-name="odieresis" unicode="&#xf6;" horiz-adv-x="470" 
d="M178 -12q-67 0 -99.5 44.5t-32.5 111.5q0 93 43 165.5t109 107.5q61 32 108 32q63 0 98 -41t35 -115q0 -67 -28 -133.5t-79 -108.5q-75 -63 -154 -63zM214 28q17 0 32 6q43 18 76 91.5t33 165.5q0 59 -22.5 89.5t-58.5 30.5q-18 0 -38 -9q-37 -16 -71.5 -82.5
t-34.5 -170.5q0 -56 22.5 -88.5t61.5 -32.5zM228 631q18 0 28 -12t10 -30q0 -24 -14 -39.5t-36 -15.5q-17 0 -28 11.5t-11 29.5q0 20 14 38t37 18zM404 631q18 0 28 -12t10 -30q0 -24 -14 -39.5t-36 -15.5q-17 0 -28 11.5t-11 29.5q0 20 14 38t37 18z" />
    <glyph glyph-name="divide" unicode="&#xf7;" horiz-adv-x="596" 
d="M310 354q-19 0 -34 14.5t-15 34.5q0 19 15 33.5t34 14.5q21 0 35.5 -14t14.5 -34t-14.5 -34.5t-35.5 -14.5zM551 230h-485v49h485v-49zM309 154q19 0 34 -14t15 -34q0 -19 -15.5 -33.5t-33.5 -14.5q-21 0 -35.5 14t-14.5 34t14.5 34t35.5 14z" />
    <glyph glyph-name="oslash" unicode="&#xf8;" horiz-adv-x="472" 
d="M417 483l25 -19l-39 -52q38 -41 38 -120q0 -64 -28.5 -130.5t-78.5 -109.5q-31 -28 -75 -46t-84 -18q-41 0 -67 18l-39 -53l-23 22l37 51q-36 40 -36 116q0 95 41 165.5t104 105.5q63 36 117 36q42 0 70 -18zM134 93l206 282q-18 35 -64 35q-22 0 -38 -7q-37 -15 -75 -81
t-39 -169q0 -20 10 -60zM356 343l-208 -281q21 -35 60 -35q19 0 37 8q44 17 81.5 90t36.5 166q0 31 -7 52z" />
    <glyph glyph-name="ugrave" unicode="&#xf9;" horiz-adv-x="533" 
d="M492 114l13 -24q-35 -43 -78 -72.5t-67 -29.5q-39 0 -15 106q5 20 19 88h-2q-81 -107 -161 -163q-43 -31 -81 -31q-64 0 -33 127l54 230q8 34 -3 34q-10 0 -70 -48l-11 24q42 42 84 68t63 26q12 0 17 -8t3.5 -26.5t-9.5 -52.5l-55 -240q-15 -66 12 -66q39 0 106 72
t101 135l36 160l69 26h11q-45 -177 -78 -348q-8 -39 3 -39q7 0 30 16t42 36zM362 500l-29 -9q-63 120 -89 164l3 9q8 3 35 8t38 4q6 -29 23 -98z" />
    <glyph glyph-name="uacute" unicode="&#xfa;" horiz-adv-x="533" 
d="M492 114l13 -24q-35 -43 -78 -72.5t-67 -29.5q-39 0 -15 106q5 20 19 88h-2q-81 -107 -161 -163q-43 -31 -81 -31q-64 0 -33 127l54 230q8 34 -3 34q-10 0 -70 -48l-11 24q42 42 84 68t63 26q12 0 17 -8t3.5 -26.5t-9.5 -52.5l-55 -240q-15 -66 12 -66q39 0 106 72
t101 135l36 160l69 26h11q-45 -177 -78 -348q-8 -39 3 -39q7 0 30 16t42 36zM466 661l-155 -170l-23 16q61 96 92 155q10 4 41.5 8t41.5 2z" />
    <glyph glyph-name="ucircumflex" unicode="&#xfb;" horiz-adv-x="533" 
d="M492 114l13 -24q-35 -43 -78 -72.5t-67 -29.5q-39 0 -15 106q5 20 19 88h-2q-81 -107 -161 -163q-43 -31 -81 -31q-64 0 -33 127l54 230q8 34 -3 34q-10 0 -70 -48l-11 24q42 42 84 68t63 26q12 0 17 -8t3.5 -26.5t-9.5 -52.5l-55 -240q-15 -66 12 -66q39 0 106 72
t101 135l36 160l69 26h11q-45 -177 -78 -348q-8 -39 3 -39q7 0 30 16t42 36zM436 506l-23 -17q-30 33 -71 96q-59 -59 -109 -96l-19 17q85 98 130 163h22q24 -75 70 -163z" />
    <glyph glyph-name="udieresis" unicode="&#xfc;" horiz-adv-x="533" 
d="M492 114l13 -24q-35 -43 -78 -72.5t-67 -29.5q-39 0 -15 106q5 20 19 88h-2q-81 -107 -161 -163q-43 -31 -81 -31q-64 0 -33 127l54 230q8 34 -3 34q-10 0 -70 -48l-11 24q42 42 84 68t63 26q12 0 17 -8t3.5 -26.5t-9.5 -52.5l-55 -240q-15 -66 12 -66q39 0 106 72
t101 135l36 160l69 26h11q-45 -177 -78 -348q-8 -39 3 -39q7 0 30 16t42 36zM260 631q18 0 28 -12t10 -30q0 -24 -14 -39.5t-36 -15.5q-17 0 -28 11.5t-11 29.5q0 20 14 38t37 18zM436 631q18 0 28 -12t10 -30q0 -24 -14 -39.5t-36 -15.5q-17 0 -28 11.5t-11 29.5
q0 20 14 38t37 18z" />
    <glyph glyph-name="yacute" unicode="&#xfd;" horiz-adv-x="442" 
d="M239 75h2q96 148 121 213q13 37 13 62q0 23 -11 47q-5 11 2 25q13 27 42 27q17 0 28 -15.5t11 -39.5q1 -42 -35 -106q-76 -135 -181 -283q-107 -154 -180 -235l-104 -27l-8 22q134 87 235 224q-2 136 -31 326q-9 62 -21 62q-6 0 -23 -16.5t-35 -41.5l-17 23q27 43 60 75
t58 32q39 0 51 -117q12 -92 23 -257zM432 661l-155 -170l-23 16q61 96 92 155q10 4 41.5 8t41.5 2z" />
    <glyph glyph-name="thorn" unicode="&#xfe;" horiz-adv-x="494" 
d="M178 299h2q63 76 121.5 113t96.5 37q30 0 50.5 -29.5t20.5 -83.5q0 -86 -41 -167t-107 -127q-38 -27 -79.5 -40.5t-57.5 -13.5q-38 0 -66 18l-28 -142q-8 -46 1 -59.5t50 -18.5l24 -2l-3 -25l-236 -12l3 26q47 9 61.5 23.5t25.5 67.5l149 720q8 47 0.5 57t-47.5 10h-24
l3 26q34 4 69 12.5t57.5 15.5t27.5 7q15 2 9 -27zM352 391q-30 0 -83 -42t-100 -113q-22 -94 -37 -170q10 -12 32 -23t47 -11q39 0 67 20q36 24 72 101.5t36 164.5q0 73 -34 73z" />
    <glyph glyph-name="ydieresis" unicode="&#xff;" horiz-adv-x="442" 
d="M239 75h2q96 148 121 213q13 37 13 62q0 23 -11 47q-5 11 2 25q13 27 42 27q17 0 28 -15.5t11 -39.5q1 -42 -35 -106q-76 -135 -181 -283q-107 -154 -180 -235l-104 -27l-8 22q134 87 235 224q-2 136 -31 326q-9 62 -21 62q-6 0 -23 -16.5t-35 -41.5l-17 23q27 43 60 75
t58 32q39 0 51 -117q12 -92 23 -257zM217 631q19 0 29 -12t10 -30q0 -23 -14 -39t-36 -16q-17 0 -28 11.5t-11 29.5q0 20 13.5 38t36.5 18zM393 631q19 0 29 -12t10 -30q0 -23 -14 -39t-36 -16q-17 0 -28 11.5t-11 29.5q0 20 13.5 38t36.5 18z" />
    <glyph glyph-name="Amacron" unicode="&#x100;" horiz-adv-x="664" 
d="M621 27l-7 -27h-236l7 27q50 5 61 16t6 45l-25 148h-209q-50 -94 -70 -136q-21 -45 -12 -56.5t67 -16.5l-6 -27h-215l7 27q47 6 65 20.5t53 75.5l301 533l31 8l28 -177q26 -166 64 -373q9 -54 23 -68t67 -19zM421 278l-40 259h-2q-115 -212 -139 -259h181zM552 762
l-13 -52h-227l13 52h227z" />
    <glyph glyph-name="amacron" unicode="&#x101;" horiz-adv-x="490" 
d="M453 116l12 -24q-37 -46 -80.5 -75t-65.5 -29q-35 0 -18 88l20 95h-2q-55 -78 -129 -138q-55 -45 -93 -45q-22 0 -40 29t-18 84q0 76 33 151t87 120q40 33 90.5 55t95.5 22q25 0 62 -7q28 -6 38 -6l3 -4q-34 -132 -69 -325q-9 -43 2 -43q7 0 29.5 16t42.5 36zM149 52
q28 0 93.5 71t92.5 125q7 27 33 144q-28 14 -67 14q-44 0 -71 -21q-49 -36 -78.5 -112.5t-29.5 -154.5q0 -32 8 -49t19 -17zM442 598l-12 -51h-224l13 51h223z" />
    <glyph glyph-name="Abreve" unicode="&#x102;" horiz-adv-x="664" 
d="M621 27l-7 -27h-236l7 27q50 5 61 16t6 45l-25 148h-209q-50 -94 -70 -136q-21 -45 -12 -56.5t67 -16.5l-6 -27h-215l7 27q47 6 65 20.5t53 75.5l301 533l31 8l28 -177q26 -166 64 -373q9 -54 23 -68t67 -19zM421 278l-40 259h-2q-115 -212 -139 -259h181zM528 807h30
q-9 -55 -44.5 -85t-89.5 -30q-51 0 -78.5 30t-22.5 85h30q10 -59 78 -59t97 59z" />
    <glyph glyph-name="abreve" unicode="&#x103;" horiz-adv-x="490" 
d="M453 116l12 -24q-37 -46 -80.5 -75t-65.5 -29q-35 0 -18 88l20 95h-2q-55 -78 -129 -138q-55 -45 -93 -45q-22 0 -40 29t-18 84q0 76 33 151t87 120q40 33 90.5 55t95.5 22q25 0 62 -7q28 -6 38 -6l3 -4q-34 -132 -69 -325q-9 -43 2 -43q7 0 29.5 16t42.5 36zM149 52
q28 0 93.5 71t92.5 125q7 27 33 144q-28 14 -67 14q-44 0 -71 -21q-49 -36 -78.5 -112.5t-29.5 -154.5q0 -32 8 -49t19 -17zM421 642h26q-11 -69 -47.5 -100t-84.5 -31q-49 0 -75.5 31t-14.5 100h25q1 -36 20.5 -55t52.5 -19q70 0 98 74z" />
    <glyph glyph-name="Aogonek" unicode="&#x104;" horiz-adv-x="664" 
d="M621 27l-7 -27h-148q-44 -36 -68 -76t-24 -72q0 -35 38 -35q24 0 53 13l7 -27l-57 -33q-17 -10 -43 -10q-29 0 -48.5 18.5t-19.5 49.5q0 34 24 73.5t49.5 64.5t66.5 60q14 14 11 32q-5 46 -28 178h-209q-40 -75 -69 -136q-21 -45 -12 -56.5t67 -16.5l-7 -27h-215l7 27
q47 6 65 20.5t53 75.5l301 533l31 8l28 -177q27 -173 64 -373q9 -54 23 -68t67 -19zM240 278h181l-40 258h-2q-123 -226 -139 -258z" />
    <glyph glyph-name="aogonek" unicode="&#x105;" horiz-adv-x="490" 
d="M319 171h-2q-53 -76 -128 -139q-54 -44 -92 -44q-23 0 -40.5 28.5t-17.5 84.5q0 76 33 151t87 120q40 33 90 55t95 22q24 0 61 -7q28 -6 38 -6l3 -4q-34 -132 -69 -325q-7 -43 2 -43q7 0 29 15.5t44 36.5l12 -24q-73 -87 -134 -101q-37 -28 -65.5 -70.5t-28.5 -70.5
q0 -14 9.5 -23.5t25.5 -10.5q20 0 48 12l7 -26l-53 -30q-17 -10 -38 -10q-29 0 -48.5 17t-19.5 47q0 72 132 176q-10 19 1 74zM302 405q-46 0 -72 -21q-49 -36 -78.5 -111.5t-29.5 -152.5q0 -65 26 -65q29 0 94 70.5t91 124.5q15 50 33 141q-24 14 -64 14z" />
    <glyph glyph-name="Cacute" unicode="&#x106;" horiz-adv-x="635" 
d="M582 174l26 -14q-13 -32 -38 -80t-41 -71q-103 -24 -172 -24q-129 0 -210 76t-81 212q0 174 119 283t296 109q87 0 171 -33q-1 -16 -3.5 -70.5t-4.5 -82.5l-30 -3q-4 86 -41 120t-115 34q-128 0 -211.5 -105.5t-83.5 -248.5q0 -112 54 -184.5t151 -72.5q69 0 117.5 40
t96.5 115zM585 770l-2 -8l-188 -63l-13 24l161 102q9 -2 24.5 -22.5t17.5 -32.5z" />
    <glyph glyph-name="cacute" unicode="&#x107;" horiz-adv-x="382" 
d="M336 121l15 -22q-45 -52 -99.5 -81.5t-100.5 -29.5q-49 0 -78 38t-29 109q0 64 28 130.5t75 109.5q33 29 79 51.5t81 22.5q31 0 53 -15.5t23 -34.5q0 -29 -33 -46q-12 -7 -22 6q-31 43 -75 43q-48 0 -83 -66q-44 -79 -44 -181q0 -52 19 -80t52 -28q34 0 73.5 23.5
t65.5 50.5zM415 661l-155 -170l-23 16q61 96 92 155q10 4 41.5 8t41.5 2z" />
    <glyph glyph-name="Ccircumflex" unicode="&#x108;" horiz-adv-x="635" 
d="M582 174l26 -14q-13 -32 -38 -80t-41 -71q-103 -24 -172 -24q-129 0 -210 76t-81 212q0 174 119 283t296 109q87 0 171 -33q-1 -16 -3.5 -70.5t-4.5 -82.5l-30 -3q-4 86 -41 120t-115 34q-128 0 -211.5 -105.5t-83.5 -248.5q0 -112 54 -184.5t151 -72.5q69 0 117.5 40
t96.5 115zM585 720l-18 -23q-53 24 -107 58q-70 -38 -126 -58l-13 23q76 48 136 104l25 -1q41 -50 103 -103z" />
    <glyph glyph-name="ccircumflex" unicode="&#x109;" horiz-adv-x="382" 
d="M336 121l15 -22q-45 -52 -99.5 -81.5t-100.5 -29.5q-49 0 -78 38t-29 109q0 64 28 130.5t75 109.5q33 29 79 51.5t81 22.5q31 0 53 -15.5t23 -34.5q0 -29 -33 -46q-12 -7 -22 6q-31 43 -75 43q-48 0 -83 -66q-44 -79 -44 -181q0 -52 19 -80t52 -28q34 0 73.5 23.5
t65.5 50.5zM391 506l-23 -17q-30 33 -71 96q-59 -59 -109 -96l-19 17q85 98 130 163h22q24 -75 70 -163z" />
    <glyph glyph-name="Cdotaccent" unicode="&#x10a;" horiz-adv-x="635" 
d="M582 174l26 -14q-13 -32 -38 -80t-41 -71q-103 -24 -172 -24q-129 0 -210 76t-81 212q0 174 119 283t296 109q87 0 171 -33q-1 -16 -3.5 -70.5t-4.5 -82.5l-30 -3q-4 86 -41 120t-115 34q-128 0 -211.5 -105.5t-83.5 -248.5q0 -112 54 -184.5t151 -72.5q69 0 117.5 40
t96.5 115zM462 811q19 0 30 -13t11 -31q0 -24 -15 -41t-37 -17q-18 0 -30 12.5t-12 31.5q0 22 14.5 40t38.5 18z" />
    <glyph glyph-name="cdotaccent" unicode="&#x10b;" horiz-adv-x="382" 
d="M336 121l15 -22q-45 -52 -99.5 -81.5t-100.5 -29.5q-49 0 -78 38t-29 109q0 64 28 130.5t75 109.5q33 29 79 51.5t81 22.5q31 0 53 -15.5t23 -34.5q0 -29 -33 -46q-12 -7 -22 6q-31 43 -75 43q-48 0 -83 -66q-44 -79 -44 -181q0 -52 19 -80t52 -28q34 0 73.5 23.5
t65.5 50.5zM296 635q19 0 30 -13t11 -31q0 -24 -15.5 -41t-37.5 -17q-18 0 -30 12.5t-12 31.5q0 21 15 39.5t39 18.5z" />
    <glyph glyph-name="Ccaron" unicode="&#x10c;" horiz-adv-x="635" 
d="M582 174l26 -14q-13 -32 -38 -80t-41 -71q-103 -24 -172 -24q-129 0 -210 76t-81 212q0 174 119 283t296 109q87 0 171 -33q-1 -16 -3.5 -70.5t-4.5 -82.5l-30 -3q-4 86 -41 120t-115 34q-128 0 -211.5 -105.5t-83.5 -248.5q0 -112 54 -184.5t151 -72.5q69 0 117.5 40
t96.5 115zM586 828l14 -21q-86 -57 -136 -105h-25q-39 48 -103 105l19 21q44 -18 106 -58q79 42 125 58z" />
    <glyph glyph-name="ccaron" unicode="&#x10d;" horiz-adv-x="382" 
d="M336 121l15 -22q-45 -52 -99.5 -81.5t-100.5 -29.5q-49 0 -78 38t-29 109q0 64 28 130.5t75 109.5q33 29 79 51.5t81 22.5q31 0 53 -15.5t23 -34.5q0 -29 -33 -46q-12 -7 -22 6q-31 43 -75 43q-48 0 -83 -66q-44 -79 -44 -181q0 -52 19 -80t52 -28q34 0 73.5 23.5
t65.5 50.5zM393 673l22 -18q-78 -88 -130 -162h-22q-29 84 -71 162l25 18q27 -32 69 -96q67 65 107 96z" />
    <glyph glyph-name="Dcaron" unicode="&#x10e;" horiz-adv-x="708" 
d="M130 649h249q151 0 234.5 -66.5t83.5 -204.5q0 -95 -43 -174.5t-122 -128.5q-116 -75 -306 -75h-217l7 27q58 6 73 20t26 73l78 408q11 59 1 73t-70 22zM280 556l-81 -427q-7 -37 -4.5 -54.5t15.5 -24.5q24 -14 73 -14q147 0 233 100.5t86 246.5q0 113 -62 173t-172 60
q-47 0 -66 -10q-14 -9 -22 -50zM545 814l14 -22q-86 -57 -136 -105h-25q-36 45 -103 105l19 22q45 -20 106 -59q78 42 125 59z" />
    <glyph glyph-name="dcaron" unicode="&#x10f;" horiz-adv-x="508" 
d="M470 112l14 -23q-37 -44 -80.5 -72.5t-66.5 -28.5q-37 0 -18 93l18 85l-2 -1q-52 -69 -132 -131q-57 -46 -97 -46q-27 0 -46 31.5t-19 88.5q0 72 31 145t85 119q35 31 88.5 54t88.5 23q32 0 59 -11l33 165q7 34 1 41.5t-39 7.5h-32l3 25q37 4 72 13t55.5 15.5t25.5 6.5
q13 0 7 -28q-77 -328 -124 -588q-7 -33 4 -33q22 0 71 49zM155 53q35 0 100 66t94 118l32 143q-28 26 -81 26q-41 0 -70 -21q-47 -34 -76.5 -111.5t-29.5 -146.5q0 -74 31 -74zM607 709q21 0 35 -17.5t14 -46.5q0 -43 -29 -71t-71 -40l-11 25q56 28 56 59q0 21 -24 34
q-9 4 -9 20q0 14 11.5 25.5t27.5 11.5z" />
    <glyph glyph-name="Dcroat" unicode="&#x110;" horiz-adv-x="719" 
d="M139 649h248q149 0 234.5 -65.5t85.5 -202.5q0 -94 -44 -174.5t-123 -131.5q-118 -75 -308 -75h-214l7 27q58 6 72.5 19t26.5 72l39 203h-109l8 37h108l33 168q6 35 7.5 51t-8 26.5t-22.5 13t-48 6.5zM245 321l-35 -185q-8 -43 -5.5 -60.5t17.5 -26.5q23 -13 68 -13
q66 0 120.5 20.5t91 55t62 80t36.5 95t11 101.5q0 101 -53 164.5t-173 63.5q-52 0 -71 -8q-15 -8 -22 -39l-40 -211h155l-8 -37h-154z" />
    <glyph glyph-name="dcroat" unicode="&#x111;" horiz-adv-x="509" 
d="M570 570l-9 -36h-74q-47 -203 -90 -439q-7 -33 4 -33q22 0 72 50l13 -22q-38 -45 -80.5 -73.5t-65.5 -28.5q-38 0 -21 87l19 92h-2q-51 -70 -130 -133q-60 -46 -101 -46q-27 0 -46.5 31.5t-19.5 88.5q0 72 31.5 145t85.5 119q35 31 89.5 54t90.5 23q32 0 59 -11l21 96
h-132l9 36h129l7 35q6 31 -1 39t-40 9h-29l2 24q37 4 72 13t55 15.5t25 6.5q14 0 7 -28l-14 -63l-11 -51h75zM303 406q-44 0 -74 -21q-48 -34 -77 -111.5t-29 -146.5q0 -74 30 -74q38 0 104.5 67.5t95.5 121.5l30 138q-28 26 -80 26z" />
    <glyph glyph-name="Emacron" unicode="&#x112;" horiz-adv-x="559" 
d="M128 649h435q-3 -18 -19 -153l-29 -2q-2 65 -13 88q-9 19 -27.5 26.5t-69.5 7.5h-78q-25 0 -31.5 -6.5t-12.5 -34.5l-41 -217h96q62 0 79 11.5t35 61.5h29l-38 -189h-28q2 54 -10 65.5t-75 11.5h-96l-33 -175q-15 -80 5 -96q18 -14 101 -14q55 0 83 7t48 27q29 28 67 96
l28 -10l-17 -42l-26 -66l-19 -46h-468l6 27q61 5 77 19t28 74l79 410q12 60 1.5 73.5t-72.5 19.5zM499 766l-13 -51h-227l14 51h226z" />
    <glyph glyph-name="emacron" unicode="&#x113;" 
d="M348 124l17 -23q-106 -113 -211 -113q-44 0 -77 33t-33 113q0 74 31.5 145t88.5 114q73 56 138 56q39 0 63.5 -23.5t24.5 -56.5q0 -111 -264 -177q-2 -12 -2 -32q0 -48 18 -80.5t60 -32.5q67 0 146 77zM265 408q-22 0 -41 -12q-28 -16 -55.5 -57.5t-38.5 -115.5
q185 49 185 130q0 26 -14 40.5t-36 14.5zM397 598l-13 -51h-223l12 51h224z" />
    <glyph glyph-name="Ebreve" unicode="&#x114;" horiz-adv-x="559" 
d="M128 649h435q-3 -18 -19 -153l-29 -2q-2 65 -13 88q-9 19 -27.5 26.5t-69.5 7.5h-78q-25 0 -31.5 -6.5t-12.5 -34.5l-41 -217h96q62 0 79 11.5t35 61.5h29l-38 -189h-28q2 54 -10 65.5t-75 11.5h-96l-33 -175q-15 -80 5 -96q18 -14 101 -14q55 0 83 7t48 27q29 28 67 96
l28 -10l-17 -42l-26 -66l-19 -46h-468l6 27q61 5 77 19t28 74l79 410q12 60 1.5 73.5t-72.5 19.5zM483 809h30q-9 -55 -44.5 -85t-89.5 -30q-51 0 -79 30t-23 85h31q10 -59 78 -59q67 0 97 59z" />
    <glyph glyph-name="ebreve" unicode="&#x115;" 
d="M348 124l17 -23q-106 -113 -211 -113q-44 0 -77 33t-33 113q0 74 31.5 145t88.5 114q73 56 138 56q39 0 63.5 -23.5t24.5 -56.5q0 -111 -264 -177q-2 -12 -2 -32q0 -48 18 -80.5t60 -32.5q67 0 146 77zM265 408q-22 0 -41 -12q-28 -16 -55.5 -57.5t-38.5 -115.5
q185 49 185 130q0 26 -14 40.5t-36 14.5zM379 642h26q-11 -69 -47.5 -100t-84.5 -31q-49 0 -75.5 31t-14.5 100h25q1 -36 20.5 -55t52.5 -19q70 0 98 74z" />
    <glyph glyph-name="Edotaccent" unicode="&#x116;" horiz-adv-x="559" 
d="M128 649h435q-3 -18 -19 -153l-29 -2q-2 65 -13 88q-9 19 -27.5 26.5t-69.5 7.5h-78q-25 0 -31.5 -6.5t-12.5 -34.5l-41 -217h96q62 0 79 11.5t35 61.5h29l-38 -189h-28q2 54 -10 65.5t-75 11.5h-96l-33 -175q-15 -80 5 -96q18 -14 101 -14q55 0 83 7t48 27q29 28 67 96
l28 -10l-17 -42l-26 -66l-19 -46h-468l6 27q61 5 77 19t28 74l79 410q12 60 1.5 73.5t-72.5 19.5zM389 802q19 0 30 -13t11 -32q0 -24 -15 -41t-38 -17q-17 0 -29 12.5t-12 31.5q0 22 14.5 40.5t38.5 18.5z" />
    <glyph glyph-name="edotaccent" unicode="&#x117;" 
d="M348 124l17 -23q-106 -113 -211 -113q-44 0 -77 33t-33 113q0 74 31.5 145t88.5 114q73 56 138 56q39 0 63.5 -23.5t24.5 -56.5q0 -111 -264 -177q-2 -12 -2 -32q0 -48 18 -80.5t60 -32.5q67 0 146 77zM265 408q-22 0 -41 -12q-28 -16 -55.5 -57.5t-38.5 -115.5
q185 49 185 130q0 26 -14 40.5t-36 14.5zM302 635q19 0 30 -13t11 -31q0 -24 -15 -41t-38 -17q-17 0 -29 12.5t-12 31.5q0 21 14.5 39.5t38.5 18.5z" />
    <glyph glyph-name="Eogonek" unicode="&#x118;" horiz-adv-x="559" 
d="M128 649h435q-3 -18 -19 -153l-29 -2q-2 67 -14 89q-8 19 -27 26t-71 7h-76q-25 0 -31.5 -6.5t-12.5 -35.5l-41 -216h96q62 0 79 11.5t35 61.5h29l-38 -189h-28q2 54 -10 65.5t-75 11.5h-96l-33 -175q-15 -80 5 -96q18 -14 101 -14q55 0 82.5 7.5t48.5 27.5q30 29 67 95
l28 -10l-17 -42l-26 -66l-19 -46h-47q-49 -35 -82 -77.5t-33 -72.5q0 -35 39 -35q17 0 46 11l8 -26l-54 -31q-18 -9 -39 -9q-30 0 -50.5 17t-20.5 48q0 42 40.5 88.5t99.5 86.5h-375l6 27q61 5 77 19t28 74l79 410q12 60 1.5 73.5t-73.5 19.5z" />
    <glyph glyph-name="eogonek" unicode="&#x119;" 
d="M347 125l17 -23q-52 -57 -108 -85q-113 -93 -113 -165q0 -16 10.5 -25t26.5 -9q20 0 46 12l8 -27l-52 -29q-21 -12 -41 -12q-29 0 -48.5 16.5t-19.5 46.5q0 77 115 166l-1 1q-71 -11 -107 27.5t-36 114.5q0 73 31.5 144t88.5 115q73 56 140 56q38 0 62 -23.5t24 -56.5
q0 -35 -26.5 -65.5t-71 -52.5t-84 -36t-83.5 -25q-1 -12 -1 -31q0 -47 18 -79t60 -32q66 0 145 77zM268 407q-27 0 -44 -11q-75 -46 -95 -173q186 49 186 130q0 26 -13 40t-34 14z" />
    <glyph glyph-name="Ecaron" unicode="&#x11a;" horiz-adv-x="559" 
d="M128 649h435q-3 -18 -19 -153l-29 -2q-2 65 -13 88q-9 19 -27.5 26.5t-69.5 7.5h-78q-25 0 -31.5 -6.5t-12.5 -34.5l-41 -217h96q62 0 79 11.5t35 61.5h29l-38 -189h-28q2 54 -10 65.5t-75 11.5h-96l-33 -175q-15 -80 5 -96q18 -14 101 -14q55 0 83 7t48 27q29 28 67 96
l28 -10l-17 -42l-26 -66l-19 -46h-468l6 27q61 5 77 19t28 74l79 410q12 60 1.5 73.5t-72.5 19.5zM511 813l14 -22q-86 -57 -136 -104h-25q-36 44 -103 104l19 22q41 -18 106 -58q73 39 125 58z" />
    <glyph glyph-name="ecaron" unicode="&#x11b;" 
d="M348 124l17 -23q-106 -113 -211 -113q-44 0 -77 33t-33 113q0 74 31.5 145t88.5 114q73 56 138 56q39 0 63.5 -23.5t24.5 -56.5q0 -111 -264 -177q-2 -12 -2 -32q0 -48 18 -80.5t60 -32.5q67 0 146 77zM265 408q-22 0 -41 -12q-28 -16 -55.5 -57.5t-38.5 -115.5
q185 49 185 130q0 26 -14 40.5t-36 14.5zM394 673l23 -18q-78 -88 -130 -162h-22q-29 84 -71 162l25 18q27 -32 69 -96q67 65 106 96z" />
    <glyph glyph-name="Gcircumflex" unicode="&#x11c;" horiz-adv-x="681" 
d="M654 477l-29 -2q0 82 -40 118.5t-120 36.5q-134 0 -217.5 -103.5t-83.5 -248.5q0 -115 57 -186.5t160 -71.5q99 0 114 70l19 94q11 55 -1.5 67t-86.5 19l6 26h244l-6 -25q-42 -7 -53 -19.5t-21 -67.5l-16 -83q-9 -48 -5 -79q-14 -3 -47 -11.5t-53.5 -13t-52 -8.5
t-59.5 -4q-133 0 -214.5 76t-81.5 210q0 172 118 283t304 111q87 0 177 -32q-7 -70 -12 -156zM592 718l-18 -23q-53 24 -107 58q-73 -39 -126 -58l-13 23q80 50 136 104l25 -1q41 -48 103 -103z" />
    <glyph glyph-name="gcircumflex" unicode="&#x11d;" horiz-adv-x="420" 
d="M469 445l7 -19q-37 -41 -71 -47q-12 -3 -26 -3q8 -22 8 -56q0 -93 -76 -153q-53 -43 -129 -58q-20 -17 -20 -32q0 -21 72 -58q72 -38 103.5 -69.5t31.5 -63.5q0 -58 -78.5 -100.5t-157.5 -42.5q-73 0 -126.5 33t-52.5 79q1 59 168 144q-39 25 -37 49q0 26 61 62
q-87 20 -87 122q0 48 22.5 92.5t61.5 74.5q62 50 128 50q53 0 85 -28q77 1 113 24zM200 149q43 0 78 46t35 122q0 44 -17.5 70.5t-49.5 26.5q-43 0 -73 -45q-38 -54 -38 -130q0 -43 18.5 -66.5t46.5 -23.5zM173 -215q55 0 89 22t34 52q0 36 -73 79q-52 31 -75 43
q-51 -25 -81 -53.5t-30 -55.5q0 -37 41 -62t95 -25zM367 506l-23 -17q-30 33 -71 96q-56 -56 -109 -96l-19 17q85 98 130 163h22q24 -75 70 -163z" />
    <glyph glyph-name="Gbreve" unicode="&#x11e;" horiz-adv-x="681" 
d="M654 477l-29 -2q0 82 -40 118.5t-120 36.5q-134 0 -217.5 -103.5t-83.5 -248.5q0 -115 57 -186.5t160 -71.5q99 0 114 70l19 94q11 55 -1.5 67t-86.5 19l6 26h244l-6 -25q-42 -7 -53 -19.5t-21 -67.5l-16 -83q-9 -48 -5 -79q-14 -3 -47 -11.5t-53.5 -13t-52 -8.5
t-59.5 -4q-133 0 -214.5 76t-81.5 210q0 172 118 283t304 111q87 0 177 -32q-7 -70 -12 -156zM572 820h31q-10 -55 -45.5 -85t-88.5 -30q-52 0 -79.5 30t-22.5 85h30q11 -59 79 -59q67 0 96 59z" />
    <glyph glyph-name="gbreve" unicode="&#x11f;" horiz-adv-x="420" 
d="M469 445l7 -19q-37 -41 -71 -47q-12 -3 -26 -3q8 -22 8 -56q0 -93 -76 -153q-53 -43 -129 -58q-20 -17 -20 -32q0 -21 72 -58q72 -38 103.5 -69.5t31.5 -63.5q0 -58 -78.5 -100.5t-157.5 -42.5q-73 0 -126.5 33t-52.5 79q1 59 168 144q-39 25 -37 49q0 26 61 62
q-87 20 -87 122q0 48 22.5 92.5t61.5 74.5q62 50 128 50q53 0 85 -28q77 1 113 24zM200 149q43 0 78 46t35 122q0 44 -17.5 70.5t-49.5 26.5q-43 0 -73 -45q-38 -54 -38 -130q0 -43 18.5 -66.5t46.5 -23.5zM173 -215q55 0 89 22t34 52q0 36 -73 79q-52 31 -75 43
q-51 -25 -81 -53.5t-30 -55.5q0 -37 41 -62t95 -25zM367 642h26q-11 -69 -47.5 -100t-84.5 -31q-49 0 -75.5 31t-14.5 100h25q1 -36 20.5 -55t52.5 -19q70 0 98 74z" />
    <glyph glyph-name="Gdotaccent" unicode="&#x120;" horiz-adv-x="681" 
d="M654 477l-29 -2q0 82 -40 118.5t-120 36.5q-134 0 -217.5 -103.5t-83.5 -248.5q0 -115 57 -186.5t160 -71.5q99 0 114 70l19 94q11 55 -1.5 67t-86.5 19l6 26h244l-6 -25q-42 -7 -53 -19.5t-21 -67.5l-16 -83q-9 -48 -5 -79q-14 -3 -47 -11.5t-53.5 -13t-52 -8.5
t-59.5 -4q-133 0 -214.5 76t-81.5 210q0 172 118 283t304 111q87 0 177 -32q-7 -70 -12 -156zM474 809q19 0 30 -13t11 -32q0 -23 -15.5 -40t-37.5 -17q-18 0 -30 12t-12 31q0 22 14.5 40.5t39.5 18.5z" />
    <glyph glyph-name="gdotaccent" unicode="&#x121;" horiz-adv-x="420" 
d="M469 445l7 -19q-37 -41 -71 -47q-12 -3 -26 -3q8 -22 8 -56q0 -93 -76 -153q-53 -43 -129 -58q-20 -17 -20 -32q0 -21 72 -58q72 -38 103.5 -69.5t31.5 -63.5q0 -58 -78.5 -100.5t-157.5 -42.5q-73 0 -126.5 33t-52.5 79q1 59 168 144q-39 25 -37 49q0 26 61 62
q-87 20 -87 122q0 48 22.5 92.5t61.5 74.5q62 50 128 50q53 0 85 -28q77 1 113 24zM200 149q43 0 78 46t35 122q0 44 -17.5 70.5t-49.5 26.5q-43 0 -73 -45q-38 -54 -38 -130q0 -43 18.5 -66.5t46.5 -23.5zM173 -215q55 0 89 22t34 52q0 36 -73 79q-52 31 -75 43
q-51 -25 -81 -53.5t-30 -55.5q0 -37 41 -62t95 -25zM278 635q19 0 30.5 -13t11.5 -31q0 -24 -15.5 -41t-37.5 -17q-18 0 -30 12.5t-12 31.5q0 21 14.5 39.5t38.5 18.5z" />
    <glyph glyph-name="uni0122" unicode="&#x122;" horiz-adv-x="681" 
d="M654 477l-29 -2q0 82 -40 118.5t-120 36.5q-134 0 -217.5 -103.5t-83.5 -248.5q0 -115 57 -186.5t160 -71.5q99 0 114 70l19 94q11 55 -1.5 67t-86.5 19l6 26h244l-6 -25q-42 -7 -53 -19.5t-21 -67.5l-16 -83q-9 -48 -5 -79q-14 -3 -47 -11.5t-53.5 -13t-52 -8.5
t-59.5 -4q-133 0 -214.5 76t-81.5 210q0 172 118 283t304 111q87 0 177 -32q-7 -70 -12 -156zM355 -43q25 0 42 -17.5t17 -46.5q0 -34 -19.5 -59t-44 -37t-54.5 -18l-8 27q68 24 68 58q0 24 -36 35q-11 2 -11 19t13 28t33 11z" />
    <glyph glyph-name="uni0123" unicode="&#x123;" horiz-adv-x="420" 
d="M469 445l7 -19q-37 -41 -71 -47q-12 -3 -26 -3q8 -22 8 -56q0 -93 -76 -153q-53 -43 -129 -58q-20 -17 -20 -32q0 -21 72 -58q72 -38 103.5 -69.5t31.5 -63.5q0 -58 -78.5 -100.5t-157.5 -42.5q-73 0 -126.5 33t-52.5 79q1 59 168 144q-39 25 -37 49q0 26 61 62
q-87 20 -87 122q0 48 22.5 92.5t61.5 74.5q62 50 128 50q53 0 85 -28q77 1 113 24zM200 149q43 0 78 46t35 122q0 44 -17.5 70.5t-49.5 26.5q-43 0 -73 -45q-38 -54 -38 -130q0 -43 18.5 -66.5t46.5 -23.5zM173 -215q55 0 89 22t34 52q0 36 -73 79q-52 31 -75 43
q-51 -25 -81 -53.5t-30 -55.5q0 -37 41 -62t95 -25zM281 529q-25 0 -42 17.5t-17 46.5q-1 44 33.5 73.5t83.5 40.5l8 -28q-66 -25 -66 -58q0 -24 35 -34q11 -2 11 -18q0 -18 -13.5 -29t-32.5 -11z" />
    <glyph glyph-name="Hcircumflex" unicode="&#x124;" horiz-adv-x="742" 
d="M787 649l-6 -26q-58 -6 -72.5 -20t-26.5 -76l-77 -406q-12 -60 -1 -74.5t71 -19.5l-6 -27h-254l7 27q59 5 74.5 19.5t26.5 74.5l38 202h-327l-38 -202q-11 -62 -0.5 -75.5t71.5 -18.5l-6 -27h-248l6 27q56 5 70 19t25 75l78 406q12 62 1.5 76t-72.5 20l7 26h247l-6 -26
q-54 -6 -69 -21t-26 -75l-31 -163h326l32 163q11 62 1 76t-69 20l6 26h248zM593 706l-18 -22q-47 19 -107 58q-79 -42 -126 -58l-13 22q81 53 136 104h25q41 -49 103 -104z" />
    <glyph glyph-name="hcircumflex" unicode="&#x125;" horiz-adv-x="511" 
d="M465 108l13 -24q-38 -43 -79.5 -69.5t-64.5 -26.5q-39 0 -17 97l53 232q16 71 -8 71q-34 0 -104.5 -66.5t-107.5 -132.5q-19 -82 -37 -182q-36 -6 -71 -19l-7 8q81 364 126 600q7 39 2 47t-35 9l-29 1l3 24q34 3 68 12t54 16t25 7q12 0 4 -35l-90 -415h2q83 111 185 166
q39 21 67 21q57 0 28 -127l-52 -224q-7 -36 3 -36q21 0 69 46zM347 744l-18 -22q-47 19 -107 58q-77 -41 -126 -58l-13 22q71 45 136 104h25q36 -45 103 -104z" />
    <glyph glyph-name="Hbar" unicode="&#x126;" horiz-adv-x="743" 
d="M776 509l-9 -37h-94l-69 -353q-11 -59 -0.5 -73t71.5 -19l-6 -27h-254l7 27q59 5 74 19t26 73l39 201h-327l-38 -201q-11 -59 0 -73t71 -19l-6 -27h-248l6 27q55 5 69 18.5t25 73.5l69 353h-98l10 37h95l6 28q11 54 -0.5 67t-73.5 19l7 26h247l-6 -26q-55 -6 -69.5 -19
t-24.5 -67l-5 -28h327l5 28q10 54 -0.5 67t-68.5 19l6 26h248l-6 -26q-57 -6 -71 -19t-25 -67l-5 -28h96zM590 472h-327l-21 -110h327z" />
    <glyph glyph-name="hbar" unicode="&#x127;" horiz-adv-x="511" 
d="M461 107l13 -23q-38 -43 -79.5 -69.5t-65.5 -26.5q-37 0 -15 97l53 232q9 39 7.5 54.5t-14.5 15.5q-31 0 -102 -69t-109 -134q-16 -58 -38 -177q-36 -6 -71 -19l-7 8l116 532h-81l12 35h77q8 36 11 54t2.5 28.5t-4 13t-11.5 2.5l-28 4l5 24q24 4 51.5 10t44 10t21.5 4
q13 0 5 -32l-26 -118h149l-12 -35h-146l-58 -271h2q88 116 191 171q38 21 63 21q54 0 29 -110l-55 -238q-9 -40 1 -40q8 0 28.5 13.5t40.5 32.5z" />
    <glyph glyph-name="Itilde" unicode="&#x128;" horiz-adv-x="335" 
d="M380 649l-6 -26q-58 -6 -72 -18.5t-25 -67.5l-81 -421q-11 -58 0 -71t73 -18l-6 -27h-256l7 27q58 4 73.5 18t26.5 71l81 421q10 54 -1.5 67t-74.5 19l7 26h254zM367 792l25 -16q-29 -80 -80 -80q-17 0 -69 23q-30 13 -41 13q-24 0 -47 -44l-24 17q30 80 79 80
q20 0 60 -18q37 -16 51 -16q23 0 46 41z" />
    <glyph glyph-name="itilde" unicode="&#x129;" horiz-adv-x="274" 
d="M224 109l13 -21q-28 -33 -74.5 -66.5t-71.5 -33.5q-37 0 -13 98l62 256q9 32 -1 32q-18 0 -68 -43l-12 23q40 39 85 67t66 28q30 0 10 -79l-68 -276q-8 -32 2 -32q16 0 70 47zM312 620l24 -12q-34 -85 -81 -85q-17 0 -67 23q-26 12 -42 12q-23 0 -48 -43l-22 15
q17 43 38.5 63t41.5 20q18 0 58 -18q37 -16 53 -16q20 0 45 41z" />
    <glyph glyph-name="Imacron" unicode="&#x12a;" horiz-adv-x="335" 
d="M380 649l-6 -26q-58 -6 -72 -18.5t-25 -67.5l-81 -421q-11 -58 0 -71t73 -18l-6 -27h-256l7 27q58 4 73.5 18t26.5 71l81 421q10 54 -1.5 67t-74.5 19l7 26h254zM390 764l-13 -52h-227l14 52h226z" />
    <glyph glyph-name="imacron" unicode="&#x12b;" horiz-adv-x="274" 
d="M224 109l13 -21q-28 -33 -74.5 -66.5t-71.5 -33.5q-37 0 -13 98l62 256q9 32 -1 32q-18 0 -68 -43l-12 23q40 39 85 67t66 28q30 0 10 -79l-68 -276q-8 -32 2 -32q16 0 70 47zM319 598l-13 -51h-223l12 51h224z" />
    <glyph glyph-name="Ibreve" unicode="&#x12c;" horiz-adv-x="335" 
d="M380 649l-6 -26q-58 -6 -72 -18.5t-25 -67.5l-81 -421q-11 -58 0 -71t73 -18l-6 -27h-256l7 27q58 4 73.5 18t26.5 71l81 421q10 54 -1.5 67t-74.5 19l7 26h254zM363 808h31q-10 -55 -45.5 -85t-88.5 -30q-52 0 -79.5 30t-22.5 85h30q11 -58 79 -58q67 0 96 58z" />
    <glyph glyph-name="ibreve" unicode="&#x12d;" horiz-adv-x="274" 
d="M224 109l13 -21q-28 -33 -74.5 -66.5t-71.5 -33.5q-37 0 -13 98l62 256q9 32 -1 32q-18 0 -68 -43l-12 23q40 39 85 67t66 28q30 0 10 -79l-68 -276q-8 -32 2 -32q16 0 70 47zM301 642h26q-11 -69 -47.5 -100t-84.5 -31q-49 0 -75.5 31t-14.5 100h25q1 -36 20.5 -55
t52.5 -19q70 0 98 74z" />
    <glyph glyph-name="Iogonek" unicode="&#x12e;" horiz-adv-x="335" 
d="M380 649l-7 -26q-57 -6 -71.5 -18.5t-24.5 -65.5l-82 -425q-11 -57 0.5 -69.5t73.5 -17.5l-7 -27h-108q-61 -84 -61 -142q0 -42 45 -42q23 0 47 10l7 -26l-57 -31q-17 -10 -38 -10q-32 0 -51.5 18t-19.5 51q0 62 91 172h-110l6 27q58 4 73.5 17.5t26.5 69.5l82 425
q10 53 -1.5 65.5t-74.5 18.5l6 26h255z" />
    <glyph glyph-name="iogonek" unicode="&#x12f;" horiz-adv-x="272" 
d="M223 652q19 0 30 -13t11 -32q1 -23 -14.5 -40t-38.5 -17q-18 0 -29.5 12t-11.5 31q-1 21 14 40t39 19zM223 109l13 -21q-29 -36 -70 -65q-40 -44 -65 -90t-25 -78q0 -38 36 -38q20 0 48 13l8 -26l-55 -32q-17 -10 -38 -10q-29 0 -47.5 18.5t-18.5 47.5q0 35 29 81t68 85
l-1 1q-28 -10 -34 19t6 72l62 256q9 32 -1 32q-16 0 -68 -43l-12 23q41 40 85.5 67.5t65.5 27.5q31 0 11 -79l-69 -276q-8 -32 2 -32q19 0 70 47z" />
    <glyph glyph-name="Idotaccent" unicode="&#x130;" horiz-adv-x="335" 
d="M380 649l-6 -26q-58 -6 -72 -18.5t-25 -67.5l-81 -421q-11 -58 0 -71t73 -18l-6 -27h-256l7 27q58 4 73.5 18t26.5 71l81 421q10 54 -1.5 67t-74.5 19l7 26h254zM272 802q20 0 31 -13t11 -32q0 -24 -15.5 -41t-37.5 -17q-18 0 -30 12.5t-12 31.5q0 22 14.5 40.5
t38.5 18.5z" />
    <glyph glyph-name="dotlessi" unicode="&#x131;" horiz-adv-x="274" 
d="M224 109l13 -21q-28 -33 -74.5 -66.5t-71.5 -33.5q-37 0 -13 98l62 256q9 32 -1 32q-18 0 -68 -43l-12 23q40 39 85 67t66 28q30 0 10 -79l-68 -276q-8 -32 2 -32q16 0 70 47z" />
    <glyph glyph-name="IJ" unicode="&#x132;" horiz-adv-x="654" 
d="M380 649l-6 -26q-58 -6 -72 -18.5t-25 -67.5l-81 -421q-11 -58 0 -71t73 -18l-6 -27h-256l7 27q58 4 73.5 18t26.5 71l81 421q10 54 -1.5 67t-74.5 19l7 26h254zM710 649l-6 -26q-55 -7 -68.5 -20t-23.5 -72l-75 -401q-18 -97 -51 -154.5t-90 -90.5q-45 -27 -78 -29
l-9 29q79 23 110 108q18 46 40 157l71 381q11 59 0 72t-72 20l6 26h246z" />
    <glyph glyph-name="ij" unicode="&#x133;" horiz-adv-x="533" 
d="M222 641q19 0 29 -13t11 -32q0 -24 -15.5 -41t-37.5 -17q-18 0 -29.5 12t-12.5 32q0 21 15.5 40t39.5 19zM223 109l13 -21q-26 -33 -73.5 -66.5t-72.5 -33.5q-37 0 -13 98l62 256q9 32 -1 32q-18 0 -68 -43l-12 23q40 39 85.5 67t66.5 28q28 0 10 -79l-69 -276
q-8 -32 2 -32q19 0 70 47zM479 648q19 0 29.5 -13t10.5 -32q1 -23 -14.5 -40.5t-37.5 -17.5q-18 0 -30 12.5t-13 31.5q0 22 15 40.5t40 18.5zM331 321l-13 23q44 45 90 75t68 30q29 0 8 -103q-20 -106 -56 -280q-37 -183 -118 -260q-64 -63 -106 -63q-16 0 -30 9.5t-14 22.5
q0 24 24 44q12 10 22 4q28 -16 50 -16q42 0 67 107q16 68 81 400q3 18 5 28.5t2 17t-1.5 9t-4.5 2.5q-7 0 -30 -15.5t-44 -34.5z" />
    <glyph glyph-name="Jcircumflex" unicode="&#x134;" horiz-adv-x="321" 
d="M375 649l-7 -26q-55 -7 -68 -20t-24 -72l-75 -401q-18 -97 -50.5 -154.5t-89.5 -90.5q-47 -27 -78 -29l-10 29q80 24 111 108q19 52 40 157l71 381q6 33 7 47.5t-9 25t-23 13t-48 6.5l6 26h247zM389 706l-19 -22q-48 20 -106 58q-77 -41 -126 -58l-13 22q77 50 136 104
h24q43 -51 104 -104z" />
    <glyph glyph-name="jcircumflex" unicode="&#x135;" horiz-adv-x="267" 
d="M303 517l-22 -16q-30 33 -71 96q-59 -59 -108 -96l-20 17q80 90 129 162h23q23 -75 69 -163zM69 323l-13 21q43 45 90 75t68 30q16 0 17 -25.5t-10 -77.5q-18 -95 -56 -279q-37 -184 -118 -261q-65 -62 -106 -62q-16 0 -29.5 9t-13.5 22q0 9 7.5 22t16.5 21q11 11 22 5
q25 -16 49 -16q22 0 37.5 24.5t29.5 84.5q15 64 81 400q10 47 2 57q-7 0 -30.5 -16t-43.5 -34z" />
    <glyph glyph-name="uni0136" unicode="&#x136;" horiz-adv-x="653" 
d="M715 649l-7 -26q-56 -8 -81.5 -19.5t-72.5 -48.5t-219 -186q88 -145 182 -275q28 -38 47.5 -50t62.5 -17l-8 -27h-144q-176 273 -186 291q-15 25 -28.5 31t-29.5 -2l-35 -192q-12 -67 -2 -81.5t69 -19.5l-6 -27h-245l7 27q55 5 69.5 20t27.5 81l76 398q12 62 2 76t-69 21
l7 26h242l-6 -26q-57 -7 -71 -21t-26 -76l-34 -178q34 11 75 45q112 95 202 184q22 20 20.5 28.5t-27.5 12.5l-30 5l7 26h231zM334 -19q24 0 41 -18t18 -47q1 -48 -34.5 -76t-83.5 -38l-8 27q33 13 50 26t17 32q0 24 -35 35q-12 3 -12 19q0 17 13.5 28.5t33.5 11.5z" />
    <glyph glyph-name="uni0137" unicode="&#x137;" horiz-adv-x="470" 
d="M437 99l17 -20q-58 -91 -110 -91q-17 0 -32.5 14t-33.5 52q-42 89 -76 186q-47 -49 -56 -64l-34 -169q-45 -9 -72 -19l-7 6q76 325 136 613q6 30 0 37t-36 8l-31 1l5 24q35 4 69 13t54 15.5t24 6.5q11 0 5 -29l-100 -445h1q31 36 86 90q119 121 175 121q19 0 30.5 -9.5
t11.5 -21.5q0 -20 -20 -40q-10 -8 -16 -5q-18 8 -38 8q-55 0 -130 -83q28 -98 82 -197q23 -48 39 -48q17 0 57 46zM201 -29q25 0 41.5 -17.5t17.5 -46.5q0 -48 -35.5 -76t-82.5 -38l-8 27q67 24 67 58q0 24 -35 35q-12 2 -12 19t13.5 28t33.5 11z" />
    <glyph glyph-name="kgreenlandic" unicode="&#x138;" horiz-adv-x="502" 
d="M464 99l17 -20q-58 -91 -111 -91q-32 0 -66 63q-31 50 -84 163q-41 -41 -54 -58q-22 -83 -35 -148q-37 -7 -71 -20l-7 8q44 174 81 339q9 41 -1 41q-7 0 -27 -13.5t-37 -31.5l-15 23q38 42 79.5 68.5t62.5 26.5q34 0 9 -108l-29 -126l2 -1q34 38 109 113q118 122 168 122
q21 0 32.5 -9.5t11.5 -22.5q0 -20 -20 -40q-9 -8 -17 -6q-14 9 -39 9q-43 0 -150 -112q46 -99 95 -178q22 -37 38 -37q18 0 58 46z" />
    <glyph glyph-name="Lacute" unicode="&#x139;" horiz-adv-x="532" 
d="M484 167l28 -11q-35 -96 -64 -156h-441l6 27q58 4 73 18t26 71l82 418q11 58 0.5 70.5t-71.5 18.5l6 26h250l-6 -26q-59 -5 -73 -18t-25 -71l-79 -414q-11 -56 11 -72q15 -13 90 -13q86 0 117 30q35 35 70 102zM423 755l-3 -8l-187 -63l-13 24l161 102q9 -2 24 -22.5
t18 -32.5z" />
    <glyph glyph-name="lacute" unicode="&#x13a;" horiz-adv-x="249" 
d="M215 117l15 -22q-38 -45 -84 -76t-70 -31q-40 0 -14 121l104 493q7 32 0 41t-42 9l-27 1l4 24q34 4 68.5 13t55 15.5t24.5 6.5q12 0 6 -30l-124 -585q-7 -35 4 -35q9 0 34.5 17t45.5 38zM347 805l-3 -8l-187 -63l-13 24l161 102q9 -2 24 -22.5t18 -32.5z" />
    <glyph glyph-name="uni013B" unicode="&#x13b;" horiz-adv-x="532" 
d="M484 167l28 -11q-35 -96 -64 -156h-441l6 27q58 4 73 18t26 71l82 418q11 58 0.5 70.5t-71.5 18.5l6 26h250l-6 -26q-59 -5 -73 -18t-25 -71l-79 -414q-11 -56 11 -72q15 -13 90 -13q86 0 117 30q35 35 70 102zM269 -34q25 0 42 -17.5t17 -46.5q0 -34 -19.5 -59t-44 -37
t-54.5 -18l-8 27q68 24 68 57q0 25 -36 36q-12 2 -12 19t13.5 28t33.5 11z" />
    <glyph glyph-name="uni013C" unicode="&#x13c;" horiz-adv-x="249" 
d="M215 117l15 -22q-38 -45 -84 -76t-70 -31q-40 0 -14 121l104 493q7 32 0 41t-42 9l-27 1l4 24q34 4 68.5 13t55 15.5t24.5 6.5q12 0 6 -30l-124 -585q-7 -35 4 -35q9 0 34.5 17t45.5 38zM91 -36q24 0 41 -18t18 -47q0 -48 -35.5 -76t-82.5 -38l-8 27q33 13 50 26t17 32
q0 24 -35 35q-12 3 -12 19q0 17 13.5 28.5t33.5 11.5z" />
    <glyph glyph-name="Lcaron" unicode="&#x13d;" horiz-adv-x="532" 
d="M484 167l28 -11q-35 -96 -64 -156h-441l6 27q58 4 73 18t26 71l82 418q11 58 0.5 70.5t-71.5 18.5l6 26h250l-6 -26q-59 -5 -73 -18t-25 -71l-79 -414q-11 -56 11 -72q15 -13 90 -13q86 0 117 30q35 35 70 102zM464 658q21 0 35.5 -17.5t14.5 -46.5q0 -42 -29 -70.5
t-71 -40.5l-11 25q56 28 56 59q0 21 -24 34q-9 4 -9 20q0 14 11.5 25.5t26.5 11.5z" />
    <glyph glyph-name="lcaron" unicode="&#x13e;" horiz-adv-x="249" 
d="M215 117l15 -22q-38 -45 -84 -76t-70 -31q-40 0 -14 121l104 493q7 32 0 41t-42 9l-27 1l4 24q34 4 68.5 13t55 15.5t24.5 6.5q12 0 6 -30l-124 -585q-7 -35 4 -35q9 0 34.5 17t45.5 38zM345 709q21 0 35 -17.5t14 -46.5q0 -43 -29 -71t-71 -40l-10 26q55 26 55 59
q0 22 -23 33q-10 5 -10 20t11.5 26t27.5 11z" />
    <glyph glyph-name="Ldot" unicode="&#x13f;" horiz-adv-x="532" 
d="M484 167l28 -11q-35 -96 -64 -156h-441l6 27q58 4 73 18t26 71l82 418q11 58 0.5 70.5t-71.5 18.5l6 26h250l-6 -26q-59 -5 -73 -18t-25 -71l-79 -414q-11 -56 11 -72q15 -13 90 -13q86 0 117 30q35 35 70 102zM398 400q20 0 31 -13t11 -31q0 -24 -15.5 -41t-37.5 -17
q-18 0 -30 12.5t-12 31.5q0 22 14.5 40t38.5 18z" />
    <glyph glyph-name="ldot" unicode="&#x140;" horiz-adv-x="275" 
d="M215 117l14 -22q-36 -44 -82 -75.5t-70 -31.5q-42 0 -16 121l105 493q7 32 -0.5 41t-41.5 9l-27 1l3 24q34 4 68.5 13t55 15.5t24.5 6.5q13 0 7 -30l-124 -585q-7 -35 4 -35q9 0 34.5 17t45.5 38zM287 414q19 0 30 -13t11 -32q0 -24 -15 -40.5t-37 -16.5q-18 0 -30 12
t-12 31q0 22 14.5 40.5t38.5 18.5z" />
    <glyph glyph-name="Lslash" unicode="&#x141;" horiz-adv-x="550" 
d="M503 165l29 -10q-54 -135 -64 -155h-443l7 27q59 5 73.5 18t26.5 73l31 165l-106 -71l10 49l106 70l39 205q11 56 0 69t-71 18l7 26h249l-6 -26q-59 -6 -72.5 -18t-24.5 -69l-30 -148l136 90l-14 -52l-131 -88l-40 -218q-11 -55 12 -72q17 -14 87 -14q53 0 77 6t43 24
q27 24 69 101z" />
    <glyph glyph-name="lslash" unicode="&#x142;" horiz-adv-x="277" 
d="M313 493l-9 -49l-98 -75l-55 -267q-8 -42 4 -42q9 0 34 18t44 38l15 -23q-36 -44 -80 -74.5t-71 -30.5q-40 0 -17 109l44 209l-87 -68l9 50l89 68l53 247q7 32 -0.5 40.5t-43.5 9.5l-29 1l6 25q34 3 68 11.5t55 15t26 6.5q12 0 6 -29l-59 -265z" />
    <glyph glyph-name="Nacute" unicode="&#x143;" horiz-adv-x="705" 
d="M766 649l-6 -26q-44 -3 -60.5 -16t-26.5 -47q-16 -54 -38 -170l-76 -398h-30l-296 530h-3l-52 -266q-23 -115 -26 -168q-1 -34 15.5 -45.5t69.5 -15.5l-6 -27h-229l6 27q40 2 59 14.5t29 43.5q17 50 42 174l52 246q7 39 5.5 54.5t-11.5 32.5q-9 16 -26 22t-59 9l6 26h144
l295 -509h4l46 250q23 119 27 171q2 35 -14.5 46.5t-72.5 15.5l7 26h225zM577 755l-3 -8l-187 -63l-13 24l161 102q9 -2 24 -22.5t18 -32.5z" />
    <glyph glyph-name="nacute" unicode="&#x144;" horiz-adv-x="532" 
d="M481 109l14 -24q-42 -45 -81 -71t-60 -26q-40 0 -16 104l54 222q18 72 -8 72q-32 0 -101 -71t-109 -138q-28 -116 -39 -169q-37 -7 -72 -20l-6 8q57 228 81 339q10 40 -1 40q-18 0 -65 -45l-13 24q39 43 79 69t62 26q35 0 8 -111l-21 -87h2q86 118 184 176q38 22 67 22
q56 0 22 -143l-49 -208q-8 -36 2 -36q17 0 66 47zM462 661l-155 -170l-23 16q61 96 92 155q10 4 41.5 8t41.5 2z" />
    <glyph glyph-name="uni0145" unicode="&#x145;" horiz-adv-x="705" 
d="M766 649l-6 -26q-44 -3 -60.5 -16t-26.5 -47q-16 -54 -38 -170l-76 -398h-30l-296 530h-3l-52 -266q-23 -115 -26 -168q-1 -34 15.5 -45.5t69.5 -15.5l-6 -27h-229l6 27q40 2 59 14.5t29 43.5q17 50 42 174l52 246q7 39 5.5 54.5t-11.5 32.5q-9 16 -26 22t-59 9l6 26h144
l295 -509h4l46 250q23 119 27 171q2 35 -14.5 46.5t-72.5 15.5l7 26h225zM343 -10q25 0 42 -18t17 -47q1 -48 -34.5 -76t-83.5 -38l-8 28q68 24 68 57q0 24 -36 35q-12 3 -12 19q0 17 13.5 28.5t33.5 11.5z" />
    <glyph glyph-name="uni0146" unicode="&#x146;" horiz-adv-x="532" 
d="M481 109l14 -24q-42 -45 -81 -71t-60 -26q-40 0 -16 104l54 222q18 72 -8 72q-32 0 -101 -71t-109 -138q-28 -116 -39 -169q-37 -7 -72 -20l-6 8q57 228 81 339q10 40 -1 40q-18 0 -65 -45l-13 24q39 43 79 69t62 26q35 0 8 -111l-21 -87h2q86 118 184 176q38 22 67 22
q56 0 22 -143l-49 -208q-8 -36 2 -36q17 0 66 47zM230 -42q25 0 42 -17.5t17 -46.5q1 -48 -34.5 -76t-83.5 -38l-8 27q67 24 67 58q0 24 -35 35q-12 2 -12 19t13.5 28t33.5 11z" />
    <glyph glyph-name="Ncaron" unicode="&#x147;" horiz-adv-x="705" 
d="M766 649l-6 -26q-44 -3 -60.5 -16t-26.5 -47q-16 -54 -38 -170l-76 -398h-30l-296 530h-3l-52 -266q-23 -115 -26 -168q-1 -34 15.5 -45.5t69.5 -15.5l-6 -27h-229l6 27q40 2 59 14.5t29 43.5q17 50 42 174l52 246q7 39 5.5 54.5t-11.5 32.5q-9 16 -26 22t-59 9l6 26h144
l295 -509h4l46 250q23 119 27 171q2 35 -14.5 46.5t-72.5 15.5l7 26h225zM577 798l13 -22q-81 -54 -136 -104h-25q-36 44 -103 104l19 22q47 -21 106 -58q73 39 126 58z" />
    <glyph glyph-name="ncaron" unicode="&#x148;" horiz-adv-x="532" 
d="M481 109l14 -24q-42 -45 -81 -71t-60 -26q-40 0 -16 104l54 222q18 72 -8 72q-32 0 -101 -71t-109 -138q-28 -116 -39 -169q-37 -7 -72 -20l-6 8q57 228 81 339q10 40 -1 40q-18 0 -65 -45l-13 24q39 43 79 69t62 26q35 0 8 -111l-21 -87h2q86 118 184 176q38 22 67 22
q56 0 22 -143l-49 -208q-8 -36 2 -36q17 0 66 47zM432 673l22 -18q-78 -88 -130 -162h-22q-25 77 -71 162l25 18q36 -42 69 -96q62 60 107 96z" />
    <glyph glyph-name="napostrophe" unicode="&#x149;" horiz-adv-x="533" 
d="M80 502l-9 27q80 32 82 77q3 37 -50 52q-12 2 -11 15q1 18 14.5 28t29.5 10q31 0 55 -23.5t23 -64.5q-2 -48 -42 -78t-92 -43zM477 108l15 -24q-40 -44 -80 -70t-61 -26q-39 0 -16 100l57 238q14 60 -6 60q-31 0 -103.5 -74.5t-110.5 -142.5q-21 -77 -38 -161
q-37 -7 -71 -20l-7 8q43 166 82 339q9 40 -2 40q-17 0 -64 -45l-13 24q39 42 79 68.5t61 26.5q35 0 9 -111l-21 -91h2q81 114 188 180q37 22 66 22q50 0 22 -117l-55 -235q-8 -34 3 -34q7 0 26 12.5t38 32.5z" />
    <glyph glyph-name="Eng" unicode="&#x14a;" horiz-adv-x="705" 
d="M766 649l-6 -26q-42 -2 -60 -14t-26 -46q-22 -83 -39 -173l-61 -320q-31 -161 -68 -219q-43 -67 -101 -67q-17 0 -29.5 9t-12.5 22q0 15 11.5 31.5t20.5 16.5q5 0 16.5 -5.5t23.5 -5.5q25 0 48 38t38 117l-288 515h-2l-52 -264q-19 -98 -26 -171q-2 -34 15 -45.5
t70 -15.5l-6 -26h-230l7 26q40 3 59.5 15t28.5 44q15 49 41 173l52 247q7 39 5.5 54.5t-11.5 32.5q-16 27 -85 31l6 26h145l295 -509h2l47 250q22 121 26 175q3 33 -15 44t-72 14l7 26h226z" />
    <glyph glyph-name="eng" unicode="&#x14b;" horiz-adv-x="516" 
d="M71 332l-15 22q37 40 78 67.5t64 27.5q34 0 8 -111l-22 -96h2q88 119 195 186q36 21 64 21q44 0 21 -106l-50 -242q-20 -94 -46 -146.5t-68 -90.5q-66 -61 -112 -61q-15 0 -27.5 8.5t-12.5 21.5q0 25 24 47q12 9 22 4q22 -15 47 -15q52 0 79 130l71 333q11 53 -7 53
q-30 0 -103.5 -75.5t-111.5 -141.5q-20 -73 -37 -160q-37 -7 -72 -20l-7 8q32 124 81 339q9 41 -1 41q-18 0 -64 -44z" />
    <glyph glyph-name="Omacron" unicode="&#x14c;" horiz-adv-x="708" 
d="M430 665q119 0 192.5 -80t73.5 -207q0 -162 -104 -277.5t-260 -115.5q-118 0 -192 78.5t-74 205.5q0 160 105.5 278t258.5 118zM422 630q-75 0 -136 -56.5t-92.5 -140.5t-31.5 -173q0 -106 45 -173t133 -67q79 0 140.5 58.5t91 141.5t29.5 168q0 108 -43.5 175t-135.5 67
zM563 767l-13 -51h-227l14 51h226z" />
    <glyph glyph-name="omacron" unicode="&#x14d;" horiz-adv-x="470" 
d="M178 -12q-67 0 -99.5 44.5t-32.5 111.5q0 93 43 165.5t109 107.5q61 32 108 32q63 0 98 -41t35 -115q0 -67 -28 -133.5t-79 -108.5q-75 -63 -154 -63zM214 28q17 0 32 6q43 18 76 91.5t33 165.5q0 59 -22.5 89.5t-58.5 30.5q-18 0 -38 -9q-37 -16 -71.5 -82.5
t-34.5 -170.5q0 -56 22.5 -88.5t61.5 -32.5zM420 598l-12 -51h-224l13 51h223z" />
    <glyph glyph-name="Obreve" unicode="&#x14e;" horiz-adv-x="708" 
d="M430 665q119 0 192.5 -80t73.5 -207q0 -162 -104 -277.5t-260 -115.5q-118 0 -192 78.5t-74 205.5q0 160 105.5 278t258.5 118zM422 630q-75 0 -136 -56.5t-92.5 -140.5t-31.5 -173q0 -106 45 -173t133 -67q79 0 140.5 58.5t91 141.5t29.5 168q0 108 -43.5 175t-135.5 67
zM542 811h31q-10 -56 -45.5 -86t-88.5 -30q-52 0 -79.5 30.5t-22.5 85.5h30q10 -59 79 -59q67 0 96 59z" />
    <glyph glyph-name="obreve" unicode="&#x14f;" horiz-adv-x="470" 
d="M178 -12q-67 0 -99.5 44.5t-32.5 111.5q0 93 43 165.5t109 107.5q61 32 108 32q63 0 98 -41t35 -115q0 -67 -28 -133.5t-79 -108.5q-75 -63 -154 -63zM214 28q17 0 32 6q43 18 76 91.5t33 165.5q0 59 -22.5 89.5t-58.5 30.5q-18 0 -38 -9q-37 -16 -71.5 -82.5
t-34.5 -170.5q0 -56 22.5 -88.5t61.5 -32.5zM396 642h26q-11 -69 -47.5 -100t-84.5 -31q-49 0 -75.5 31t-14.5 100h25q1 -36 20.5 -55t52.5 -19q70 0 98 74z" />
    <glyph glyph-name="Ohungarumlaut" unicode="&#x150;" horiz-adv-x="708" 
d="M430 665q119 0 192.5 -80t73.5 -207q0 -162 -104 -277.5t-260 -115.5q-118 0 -192 78.5t-74 205.5q0 160 105.5 278t258.5 118zM422 630q-75 0 -136 -56.5t-92.5 -140.5t-31.5 -173q0 -106 45 -173t133 -67q79 0 140.5 58.5t91 141.5t29.5 168q0 108 -43.5 175t-135.5 67
zM468 815v-14l-105 -107l-24 15l63 124q11 3 35 -3.5t31 -14.5zM604 815v-14l-105 -107l-24 15l63 124q11 3 35 -4t31 -14z" />
    <glyph glyph-name="ohungarumlaut" unicode="&#x151;" horiz-adv-x="470" 
d="M178 -12q-67 0 -99.5 44.5t-32.5 111.5q0 93 43 165.5t109 107.5q61 32 108 32q63 0 98 -41t35 -115q0 -67 -28 -133.5t-79 -108.5q-75 -63 -154 -63zM214 28q17 0 32 6q43 18 76 91.5t33 165.5q0 59 -22.5 89.5t-58.5 30.5q-18 0 -38 -9q-37 -16 -71.5 -82.5
t-34.5 -170.5q0 -56 22.5 -88.5t61.5 -32.5zM329 648l-115 -158l-26 16q3 5 64 149q10 3 38 4.5t37 -0.5zM463 648l-115 -158l-24 16l22 53l26 64l13 32q10 3 38.5 4.5t36.5 -0.5z" />
    <glyph glyph-name="OE" unicode="&#x152;" horiz-adv-x="947" 
d="M857 0h-303q-34 0 -90 -6q-47 -5 -83 -5q-71 0 -127 18.5t-90 47.5t-56 67.5t-30.5 75.5t-8.5 75q0 93 34 168t93 122.5t135 72t163 24.5q42 0 100 -5.5t83 -5.5h271l-17 -150l-29 -2q-2 63 -13 87q-9 18 -29 25t-74 7h-75q-24 0 -30 -5.5t-11 -33.5l-43 -220h95
q62 0 80 12t36 62h29l-38 -189h-28q1 54 -12 66t-77 12h-92l-33 -178q-15 -79 5 -94q16 -14 100 -14q56 0 83.5 7t48.5 27q33 31 68 95l27 -9l-17 -42l-26 -66zM497 101l87 455q10 44 -16 55q-36 15 -91 15q-131 0 -221.5 -91.5t-90.5 -259.5q0 -33 5.5 -64.5t21 -67
t40 -61.5t66 -42.5t95.5 -15.5q39 0 66 12q27 11 38 65z" />
    <glyph glyph-name="oe" unicode="&#x153;" horiz-adv-x="688" 
d="M637 128l16 -23q-106 -117 -210 -117q-34 0 -62.5 20.5t-38.5 69.5h-2q-28 -39 -76.5 -64.5t-91.5 -25.5q-64 0 -95 46.5t-31 110.5q0 92 41 163.5t103 106.5q61 34 111 34q40 0 69.5 -23t41.5 -67h2q34 37 85.5 63.5t91.5 26.5q39 0 62.5 -22.5t23.5 -56.5t-26 -65
t-69.5 -53t-85 -37t-86.5 -26q-2 -13 -2 -28q0 -114 78 -114q67 0 151 81zM600 355q0 25 -13 38t-35 13q-27 0 -48 -14q-26 -15 -52.5 -56t-37.5 -114q184 50 186 133zM350 294q0 117 -80 117q-16 0 -36 -8q-37 -15 -70.5 -79t-33.5 -169q0 -56 19.5 -91t58.5 -35q18 0 33 8
q38 17 73.5 90.5t35.5 166.5z" />
    <glyph glyph-name="Racute" unicode="&#x154;" horiz-adv-x="599" 
d="M585 17l-8 -25h-10q-70 4 -104 25t-62 73q-32 59 -68 148q-12 29 -25 38t-40 9h-42l-29 -158q-12 -66 -1.5 -80.5t71.5 -19.5l-6 -27h-251l6 27q58 6 72.5 20.5t27.5 79.5l77 402q12 62 2 75t-70 19l7 26h217q97 0 142 -31q59 -40 59 -123q0 -70 -44 -119t-111 -72
q28 -72 60 -134q36 -70 62 -105q27 -35 68 -48zM232 316h47q69 0 107 25q75 52 75 146q0 64 -31 97.5t-87 33.5q-32 0 -45 -10q-12 -8 -19 -44zM509 755l-2 -8l-187 -63l-13 24l161 102q9 -2 24 -22.5t17 -32.5z" />
    <glyph glyph-name="racute" unicode="&#x155;" horiz-adv-x="366" 
d="M62 328l-13 23q37 42 78 70t62 28q36 0 11 -116l-10 -50h3q39 75 79.5 120.5t70.5 45.5q27 0 43 -25q11 -21 -1 -43q-9 -16 -26 -29q-14 -9 -22 -1q-16 17 -34 17q-21 0 -51 -42q-51 -74 -71 -124q-18 -77 -40 -196q-34 -5 -71 -18l-8 8q49 201 73 337q8 43 -2 43
q-7 0 -28.5 -14t-42.5 -34zM394 661l-154 -170l-24 16q59 90 93 155q10 4 41 8t42 2z" />
    <glyph glyph-name="uni0156" unicode="&#x156;" horiz-adv-x="599" 
d="M585 17l-8 -25h-10q-70 4 -104 25t-62 73q-32 59 -68 148q-12 29 -25 38t-40 9h-42l-29 -158q-12 -66 -1.5 -80.5t71.5 -19.5l-6 -27h-251l6 27q58 6 72.5 20.5t27.5 79.5l77 402q12 62 2 75t-70 19l7 26h217q97 0 142 -31q59 -40 59 -123q0 -70 -44 -119t-111 -72
q28 -72 60 -134q36 -70 62 -105q27 -35 68 -48zM232 316h47q69 0 107 25q75 52 75 146q0 64 -31 97.5t-87 33.5q-32 0 -45 -10q-12 -8 -19 -44zM332 -19q25 0 42 -18t17 -47q1 -48 -34.5 -76t-83.5 -38l-8 28q68 24 68 57q0 24 -36 35q-11 3 -11 19q0 17 13 28.5t33 11.5z
" />
    <glyph glyph-name="uni0157" unicode="&#x157;" horiz-adv-x="366" 
d="M62 328l-13 23q37 42 78 70t62 28q36 0 11 -116l-10 -50h3q39 75 79.5 120.5t70.5 45.5q27 0 43 -25q11 -21 -1 -43q-9 -16 -26 -29q-14 -9 -22 -1q-16 17 -34 17q-21 0 -51 -42q-51 -74 -71 -124q-18 -77 -40 -196q-34 -5 -71 -18l-8 8q49 201 73 337q8 43 -2 43
q-7 0 -28.5 -14t-42.5 -34zM95 -38q25 0 41.5 -17.5t17.5 -46.5q0 -48 -35 -76t-83 -39l-8 28q67 25 67 57q0 25 -35 36q-12 2 -12 19t13.5 28t33.5 11z" />
    <glyph glyph-name="Rcaron" unicode="&#x158;" horiz-adv-x="599" 
d="M585 17l-8 -25h-10q-70 4 -104 25t-62 73q-32 59 -68 148q-12 29 -25 38t-40 9h-42l-29 -158q-12 -66 -1.5 -80.5t71.5 -19.5l-6 -27h-251l6 27q58 6 72.5 20.5t27.5 79.5l77 402q12 62 2 75t-70 19l7 26h217q97 0 142 -31q59 -40 59 -123q0 -70 -44 -119t-111 -72
q28 -72 60 -134q36 -70 62 -105q27 -35 68 -48zM232 316h47q69 0 107 25q75 52 75 146q0 64 -31 97.5t-87 33.5q-32 0 -45 -10q-12 -8 -19 -44zM483 813l14 -22q-86 -57 -136 -104h-25q-36 44 -103 104l19 22q44 -20 106 -58q73 39 125 58z" />
    <glyph glyph-name="rcaron" unicode="&#x159;" horiz-adv-x="366" 
d="M62 328l-13 23q37 42 78 70t62 28q36 0 11 -116l-10 -50h3q39 75 79.5 120.5t70.5 45.5q27 0 43 -25q11 -21 -1 -43q-9 -16 -26 -29q-14 -9 -22 -1q-16 17 -34 17q-21 0 -51 -42q-51 -74 -71 -124q-18 -77 -40 -196q-34 -5 -71 -18l-8 8q49 201 73 337q8 43 -2 43
q-7 0 -28.5 -14t-42.5 -34zM364 673l22 -18q-78 -88 -130 -162h-22q-29 84 -71 162l25 18q27 -32 69 -96q67 65 107 96z" />
    <glyph glyph-name="Sacute" unicode="&#x15a;" horiz-adv-x="468" 
d="M38 195l27 3q5 -32 15 -60.5t28.5 -57t49 -45t69.5 -16.5q54 0 87 35t33 94q0 40 -22.5 71.5t-70.5 69.5l-28 22q-32 26 -51.5 44.5t-40 55.5t-20.5 75q0 78 56.5 128.5t146.5 50.5q47 0 95 -17l44 -16q-2 -19 -2.5 -42.5t-0.5 -53.5v-44l-29 -3q-15 143 -120 143
q-51 0 -81.5 -34.5t-30.5 -82.5q0 -39 23 -68.5t70 -65.5l30 -22q57 -43 86.5 -85.5t29.5 -97.5q0 -85 -64 -138t-154 -53q-55 0 -104 20t-68 42q0 10 -1 60t-2 88zM467 771l-2 -8l-188 -63l-12 24l160 102q9 -2 24.5 -22.5t17.5 -32.5z" />
    <glyph glyph-name="sacute" unicode="&#x15b;" horiz-adv-x="337" 
d="M113 -12q-36 0 -68.5 23t-32.5 49q-1 24 29 42q17 8 25 -3q41 -61 96 -61q29 0 47.5 17.5t18.5 42.5q0 38 -58 84q-41 31 -64 59t-23 63q0 52 52 97q23 20 55 34t56 14q32 0 55 -18t23 -38q0 -26 -25 -41q-13 -8 -22 4q-36 45 -78 45q-22 0 -38 -15.5t-16 -40.5
q0 -24 16 -43.5t49 -45.5q46 -35 65 -60.5t19 -56.5q0 -56 -59.5 -103.5t-121.5 -47.5zM379 661l-155 -170l-23 16q61 96 92 155q10 4 41.5 8t41.5 2z" />
    <glyph glyph-name="Scircumflex" unicode="&#x15c;" horiz-adv-x="468" 
d="M38 195l27 3q5 -32 15 -60.5t28.5 -57t49 -45t69.5 -16.5q54 0 87 35t33 94q0 40 -22.5 71.5t-70.5 69.5l-28 22q-32 26 -51.5 44.5t-40 55.5t-20.5 75q0 78 56.5 128.5t146.5 50.5q47 0 95 -17l44 -16q-2 -19 -2.5 -42.5t-0.5 -53.5v-44l-29 -3q-15 143 -120 143
q-51 0 -81.5 -34.5t-30.5 -82.5q0 -39 23 -68.5t70 -65.5l30 -22q57 -43 86.5 -85.5t29.5 -97.5q0 -85 -64 -138t-154 -53q-55 0 -104 20t-68 42q0 10 -1 60t-2 88zM448 716l-18 -22q-47 19 -107 58q-79 -42 -126 -58l-13 22q81 53 136 104h25q41 -49 103 -104z" />
    <glyph glyph-name="scircumflex" unicode="&#x15d;" horiz-adv-x="337" 
d="M113 -12q-36 0 -68.5 23t-32.5 49q-1 24 29 42q17 8 25 -3q41 -61 96 -61q29 0 47.5 17.5t18.5 42.5q0 38 -58 84q-41 31 -64 59t-23 63q0 52 52 97q23 20 55 34t56 14q32 0 55 -18t23 -38q0 -26 -25 -41q-13 -8 -22 4q-36 45 -78 45q-22 0 -38 -15.5t-16 -40.5
q0 -24 16 -43.5t49 -45.5q46 -35 65 -60.5t19 -56.5q0 -56 -59.5 -103.5t-121.5 -47.5zM340 506l-23 -17q-33 37 -70 96q-64 -62 -109 -96l-20 17q85 98 130 163h22q24 -75 70 -163z" />
    <glyph glyph-name="uni015E" unicode="&#x15e;" horiz-adv-x="468" 
d="M38 195l27 3q4 -31 14.5 -60.5t28.5 -57t49 -44.5t70 -17q54 0 87 35t33 94q0 41 -22.5 73t-69.5 69l-31 23q-30 23 -50 42t-40 55t-20 74q0 79 57.5 130t147.5 51q45 0 93 -17l43 -16q-2 -25 -2 -77v-63l-29 -3q-15 142 -123 142q-51 0 -80 -33.5t-29 -81.5
q0 -40 23.5 -70.5t69.5 -63.5l30 -23q56 -41 86 -83.5t30 -97.5q0 -81 -57 -133.5t-140 -58.5l-11 -13q-11 -13 -11 -20.5t10 -19.5q30 -35 30 -65q-1 -28 -34.5 -55t-83.5 -42l-13 26q66 30 69 59q0 13 -18 36q-15 18 -16.5 29t11.5 29l29 36q-49 3 -93 21.5t-62 39.5
q0 10 -1 60t-2 88z" />
    <glyph glyph-name="uni015F" unicode="&#x15f;" horiz-adv-x="334" 
d="M246 449q31 0 54.5 -18.5t22.5 -37.5q0 -27 -25 -42q-13 -8 -22 4q-34 46 -77 46q-22 0 -37.5 -15.5t-16.5 -40.5q0 -25 16.5 -45t48.5 -45q45 -35 63 -60t18 -56q0 -46 -41.5 -87.5t-95.5 -56.5l-15 -19q-11 -13 -11.5 -20t10.5 -20q30 -38 29 -65q-1 -29 -35 -55.5
t-83 -41.5l-13 27q66 30 69 58q1 13 -17 36q-16 18 -17.5 29t12.5 28l29 36v1q-34 -2 -68 20.5t-34 49.5t30 41q16 8 24 -3q40 -59 96 -59q30 0 47.5 17.5t17.5 42.5q0 38 -57 84q-41 33 -63 60.5t-22 61.5q0 52 52 97q24 20 55.5 34t55.5 14z" />
    <glyph glyph-name="Scaron" unicode="&#x160;" horiz-adv-x="468" 
d="M38 195l27 3q5 -32 15 -60.5t28.5 -57t49 -45t69.5 -16.5q54 0 87 35t33 94q0 40 -22.5 71.5t-70.5 69.5l-28 22q-32 26 -51.5 44.5t-40 55.5t-20.5 75q0 78 56.5 128.5t146.5 50.5q47 0 95 -17l44 -16q-2 -19 -2.5 -42.5t-0.5 -53.5v-44l-29 -3q-15 143 -120 143
q-51 0 -81.5 -34.5t-30.5 -82.5q0 -39 23 -68.5t70 -65.5l30 -22q57 -43 86.5 -85.5t29.5 -97.5q0 -85 -64 -138t-154 -53q-55 0 -104 20t-68 42q0 10 -1 60t-2 88zM443 829l13 -22q-82 -55 -135 -104h-25q-37 45 -104 104l19 22q48 -21 107 -59q67 38 125 59z" />
    <glyph glyph-name="scaron" unicode="&#x161;" horiz-adv-x="337" 
d="M113 -12q-36 0 -68.5 23t-32.5 49q-1 24 29 42q17 8 25 -3q41 -61 96 -61q29 0 47.5 17.5t18.5 42.5q0 38 -58 84q-41 31 -64 59t-23 63q0 52 52 97q23 20 55 34t56 14q32 0 55 -18t23 -38q0 -26 -25 -41q-13 -8 -22 4q-36 45 -78 45q-22 0 -38 -15.5t-16 -40.5
q0 -24 16 -43.5t49 -45.5q46 -35 65 -60.5t19 -56.5q0 -56 -59.5 -103.5t-121.5 -47.5zM348 673l22 -18q-78 -88 -130 -162h-22q-25 77 -71 162l25 18q36 -42 69 -96q67 65 107 96z" />
    <glyph glyph-name="uni0162" unicode="&#x162;" horiz-adv-x="603" 
d="M636 674h21q-9 -53 -23 -175l-30 -3q0 64 -12 89q-7 18 -28.5 24.5t-78.5 6.5h-60l-93 -496q-11 -60 1.5 -74t80.5 -19l-6 -27h-107l-22 -27q-12 -14 -12.5 -21.5t11.5 -22.5q33 -39 32 -69t-37 -59t-90 -46l-14 28q73 32 74 64q1 14 -19 39q-17 19 -18.5 31t13.5 31
l42 52h-125l6 27q63 4 79 18.5t27 74.5l95 496h-51q-62 0 -85 -6t-38 -24q-22 -26 -49 -90h-30q29 94 47 178h21q8 -16 17.5 -20.5t31.5 -4.5h376q19 0 28.5 5t24.5 20z" />
    <glyph glyph-name="uni0163" unicode="&#x163;" horiz-adv-x="307" 
d="M213 394l-59 -276q-12 -60 6 -60q12 0 41.5 19.5t48.5 38.5l14 -21q-32 -39 -78 -72l-37 -48q-11 -14 -11.5 -21t10.5 -20q31 -37 30 -66t-35.5 -56.5t-85.5 -42.5l-12 27q68 31 69 60q1 13 -18 37q-16 18 -17.5 29t12.5 29l31 40q-9 -3 -19 -3q-13 0 -20.5 11.5
t-10 40.5t9.5 80l59 274h-74l-3 9l25 30h60l23 95l76 62l9 -6l-35 -151h116l-26 -34z" />
    <glyph glyph-name="Tcaron" unicode="&#x164;" horiz-adv-x="603" 
d="M636 674h21q-9 -53 -23 -175l-30 -3q0 64 -12 89q-7 18 -28.5 24.5t-78.5 6.5h-60l-93 -496q-11 -60 1.5 -74t80.5 -19l-6 -27h-272l6 27q63 4 79 18.5t27 74.5l95 496h-51q-62 0 -85 -6t-38 -24q-22 -26 -49 -90h-30q29 94 47 178h21q8 -16 17.5 -20.5t31.5 -4.5h376
q19 0 28.5 5t24.5 20zM528 813l14 -22q-86 -57 -136 -104h-25q-40 48 -103 104l19 22q44 -20 106 -58q73 39 125 58z" />
    <glyph glyph-name="tcaron" unicode="&#x165;" horiz-adv-x="307" 
d="M338 433l-26 -34l-99 -5l-59 -276q-12 -60 6 -60q12 0 41.5 19.5t48.5 38.5l14 -21q-31 -37 -78 -72t-83 -35q-13 0 -20.5 11.5t-10 40.5t9.5 80l59 274h-74l-3 9l25 30h60l23 95l76 62l9 -6l-35 -151h116zM361 672q21 0 35.5 -18t14.5 -46q0 -42 -29 -70.5t-71 -40.5
l-11 25q56 28 56 59q0 21 -24 34q-9 3 -9 20q0 14 11.5 25.5t26.5 11.5z" />
    <glyph glyph-name="Tbar" unicode="&#x166;" horiz-adv-x="599" 
d="M636 674h20q-9 -53 -23 -175l-31 -3q0 62 -13 91q-7 18 -29 23.5t-79 5.5h-57l-50 -266h145l-9 -38h-143l-36 -193q-12 -60 1 -73.5t82 -18.5l-7 -27h-271l6 27q63 5 78.5 18t27.5 74l37 193h-134l10 38h131l50 266h-43q-62 0 -88.5 -6t-40.5 -23q-25 -30 -50 -91h-31
q31 99 48 178h19q8 -16 17.5 -20.5t31.5 -4.5h378q19 0 28.5 5t24.5 20z" />
    <glyph glyph-name="tbar" unicode="&#x167;" horiz-adv-x="309" 
d="M343 433l-26 -34l-100 -5l-29 -134h98l-13 -36h-93l-22 -106q-13 -60 6 -60q12 0 40.5 19.5t47.5 39.5l15 -23q-31 -37 -78 -71.5t-82 -34.5q-13 0 -20.5 11.5t-10 40.5t9.5 80l22 104h-72l13 36h67l28 134h-74l-3 9l25 30h62l23 95l76 62l10 -6l-37 -151h117z" />
    <glyph glyph-name="Utilde" unicode="&#x168;" horiz-adv-x="707" 
d="M773 649l-6 -26q-47 -3 -63.5 -14t-24.5 -41q-17 -59 -40 -180l-15 -77q-38 -185 -119 -260q-70 -66 -170 -66q-96 0 -154 54q-77 72 -45 242l48 253q11 58 1 70.5t-70 18.5l6 26h248l-6 -26q-58 -6 -72 -18.5t-25 -71.5l-46 -244q-25 -129 16 -190t122 -61
q89 0 143 67.5t83 213.5l14 69q24 123 27 180q1 30 -16 40.5t-72 14.5l6 26h230zM573 792l25 -16q-29 -80 -80 -80q-18 0 -68 23q-28 12 -41 12q-26 0 -48 -44l-24 18q31 80 80 80q19 0 59 -18q37 -16 51 -16q23 0 46 41z" />
    <glyph glyph-name="utilde" unicode="&#x169;" horiz-adv-x="533" 
d="M492 114l13 -24q-35 -43 -78 -72.5t-67 -29.5q-39 0 -15 106q5 20 19 88h-2q-81 -107 -161 -163q-43 -31 -81 -31q-64 0 -33 127l54 230q8 34 -3 34q-10 0 -70 -48l-11 24q42 42 84 68t63 26q12 0 17 -8t3.5 -26.5t-9.5 -52.5l-55 -240q-15 -66 12 -66q39 0 106 72
t101 135l36 160l69 26h11q-45 -177 -78 -348q-8 -39 3 -39q7 0 30 16t42 36zM449 620l24 -12q-34 -85 -81 -85q-17 0 -67 23q-26 12 -42 12q-23 0 -48 -43l-22 15q17 43 38.5 63t41.5 20q18 0 58 -18q37 -16 53 -16q20 0 45 41z" />
    <glyph glyph-name="Umacron" unicode="&#x16a;" horiz-adv-x="707" 
d="M773 649l-6 -26q-47 -3 -63.5 -14t-24.5 -41q-17 -59 -40 -180l-15 -77q-38 -185 -119 -260q-70 -66 -170 -66q-96 0 -154 54q-77 72 -45 242l48 253q11 58 1 70.5t-70 18.5l6 26h248l-6 -26q-58 -6 -72 -18.5t-25 -71.5l-46 -244q-25 -129 16 -190t122 -61
q89 0 143 67.5t83 213.5l14 69q24 123 27 180q1 30 -16 40.5t-72 14.5l6 26h230zM587 764l-13 -52h-227l14 52h226z" />
    <glyph glyph-name="umacron" unicode="&#x16b;" horiz-adv-x="533" 
d="M492 114l13 -24q-35 -43 -78 -72.5t-67 -29.5q-39 0 -15 106q5 20 19 88h-2q-81 -107 -161 -163q-43 -31 -81 -31q-64 0 -33 127l54 230q8 34 -3 34q-10 0 -70 -48l-11 24q42 42 84 68t63 26q12 0 17 -8t3.5 -26.5t-9.5 -52.5l-55 -240q-15 -66 12 -66q39 0 106 72
t101 135l36 160l69 26h11q-45 -177 -78 -348q-8 -39 3 -39q7 0 30 16t42 36zM446 598l-12 -51h-224l13 51h223z" />
    <glyph glyph-name="Ubreve" unicode="&#x16c;" horiz-adv-x="707" 
d="M773 649l-6 -26q-47 -3 -63.5 -14t-24.5 -41q-17 -59 -40 -180l-15 -77q-38 -185 -119 -260q-70 -66 -170 -66q-96 0 -154 54q-77 72 -45 242l48 253q11 58 1 70.5t-70 18.5l6 26h248l-6 -26q-58 -6 -72 -18.5t-25 -71.5l-46 -244q-25 -129 16 -190t122 -61
q89 0 143 67.5t83 213.5l14 69q24 123 27 180q1 30 -16 40.5t-72 14.5l6 26h230zM559 798h30q-9 -55 -44.5 -85t-89.5 -30q-51 0 -78.5 30t-22.5 85h30q9 -58 78 -58q66 0 97 58z" />
    <glyph glyph-name="ubreve" unicode="&#x16d;" horiz-adv-x="533" 
d="M492 114l13 -24q-35 -43 -78 -72.5t-67 -29.5q-39 0 -15 106q5 20 19 88h-2q-81 -107 -161 -163q-43 -31 -81 -31q-64 0 -33 127l54 230q8 34 -3 34q-10 0 -70 -48l-11 24q42 42 84 68t63 26q12 0 17 -8t3.5 -26.5t-9.5 -52.5l-55 -240q-15 -66 12 -66q39 0 106 72
t101 135l36 160l69 26h11q-45 -177 -78 -348q-8 -39 3 -39q7 0 30 16t42 36zM440 642h26q-11 -69 -47.5 -100t-84.5 -31q-49 0 -75.5 31t-14.5 100h25q1 -36 20.5 -55t52.5 -19q70 0 98 74z" />
    <glyph glyph-name="Uring" unicode="&#x16e;" horiz-adv-x="707" 
d="M773 649l-6 -26q-47 -3 -63.5 -14t-24.5 -41q-17 -59 -40 -180l-15 -77q-38 -185 -119 -260q-70 -66 -170 -66q-96 0 -154 54q-77 72 -45 242l48 253q11 58 1 70.5t-70 18.5l6 26h248l-6 -26q-58 -6 -72 -18.5t-25 -71.5l-46 -244q-25 -129 16 -190t122 -61
q89 0 143 67.5t83 213.5l14 69q24 123 27 180q1 30 -16 40.5t-72 14.5l6 26h230zM556 759q-1 -38 -29 -62t-66 -24q-35 0 -57.5 22.5t-21.5 56.5q1 40 28.5 65t65.5 25q34 0 57.5 -23t22.5 -60zM511 761q1 21 -9 34.5t-29 13.5q-20 0 -32.5 -15.5t-13.5 -39.5
q-1 -21 9.5 -34t28.5 -13q19 0 32 15t14 39z" />
    <glyph glyph-name="uring" unicode="&#x16f;" horiz-adv-x="533" 
d="M492 114l13 -24q-35 -43 -78 -72.5t-67 -29.5q-39 0 -15 106q5 20 19 88h-2q-81 -107 -161 -163q-43 -31 -81 -31q-64 0 -33 127l54 230q8 34 -3 34q-10 0 -70 -48l-11 24q42 42 84 68t63 26q12 0 17 -8t3.5 -26.5t-9.5 -52.5l-55 -240q-15 -66 12 -66q39 0 106 72
t101 135l36 160l69 26h11q-45 -177 -78 -348q-8 -39 3 -39q7 0 30 16t42 36zM346 665q35 0 58.5 -23.5t22.5 -62.5q-1 -38 -30 -62t-67 -24q-37 0 -60 22.5t-21 57.5q1 41 30 66.5t67 25.5zM342 631q-19 0 -32.5 -15.5t-14.5 -39.5q-1 -22 9.5 -36t29.5 -14t32.5 15.5
t14.5 39.5q1 22 -9.5 36t-29.5 14z" />
    <glyph glyph-name="Uhungarumlaut" unicode="&#x170;" horiz-adv-x="707" 
d="M773 649l-6 -26q-47 -3 -63.5 -14t-24.5 -41q-17 -59 -40 -180l-15 -77q-38 -185 -119 -260q-70 -66 -170 -66q-96 0 -154 54q-77 72 -45 242l48 253q11 58 1 70.5t-70 18.5l6 26h248l-6 -26q-58 -6 -72 -18.5t-25 -71.5l-46 -244q-25 -129 16 -190t122 -61
q89 0 143 67.5t83 213.5l14 69q24 123 27 180q1 30 -16 40.5t-72 14.5l6 26h230zM488 805v-14l-105 -107l-24 15l63 124q11 3 35 -3.5t31 -14.5zM624 805v-14l-105 -107l-24 15l63 124q11 3 35 -4t31 -14z" />
    <glyph glyph-name="uhungarumlaut" unicode="&#x171;" horiz-adv-x="533" 
d="M492 114l13 -24q-35 -43 -78 -72.5t-67 -29.5q-39 0 -15 106q5 20 19 88h-2q-81 -107 -161 -163q-43 -31 -81 -31q-64 0 -33 127l54 230q8 34 -3 34q-10 0 -70 -48l-11 24q42 42 84 68t63 26q12 0 17 -8t3.5 -26.5t-9.5 -52.5l-55 -240q-15 -66 12 -66q39 0 106 72
t101 135l36 160l69 26h11q-45 -177 -78 -348q-8 -39 3 -39q7 0 30 16t42 36zM366 648l-115 -158l-26 16q57 131 63 149q10 3 38 4.5t37 -0.5zM499 648l-114 -158l-25 16q43 99 62 149q10 3 38 4.5t37 -0.5z" />
    <glyph glyph-name="Uogonek" unicode="&#x172;" horiz-adv-x="707" 
d="M773 649l-6 -26q-47 -3 -63.5 -14t-24.5 -41q-16 -54 -40 -180l-15 -77q-36 -183 -119 -260q-47 -44 -113 -59q-96 -76 -96 -143q0 -16 11.5 -26t30.5 -10q22 0 46 11l8 -27l-54 -29q-22 -10 -41 -10q-31 0 -51 18t-20 50q0 74 112 159v1q-99 -2 -158 53q-76 72 -44 242
l48 253q11 58 1 70.5t-70 18.5l6 26h248l-6 -26q-58 -6 -72 -18.5t-25 -71.5l-46 -244q-25 -129 16 -190t122 -61q89 0 142.5 67.5t82.5 213.5l14 69q23 114 27 180q1 30 -16 40.5t-72 14.5l7 26h230z" />
    <glyph glyph-name="uogonek" unicode="&#x173;" horiz-adv-x="532" 
d="M492 114l13 -24q-64 -76 -123 -96q-92 -73 -92 -143q0 -32 36 -34q19 0 47 13l7 -27l-53 -30q-20 -11 -42 -11q-28 0 -46 17.5t-18 47.5q0 39 35 86.5t88 87.5q-16 24 1 93l19 88h-2q-74 -102 -160 -163q-42 -31 -82 -31q-64 0 -33 127l54 230q8 33 -3 33t-70 -47l-11 24
q42 42 84 68t63 26q12 0 16.5 -8t3.5 -26.5t-9 -52.5l-55 -240q-16 -65 12 -65q38 0 105 72t102 135l36 159l69 26h11q-49 -194 -79 -348q-8 -39 3 -39q7 0 30 16t43 36z" />
    <glyph glyph-name="Wcircumflex" unicode="&#x174;" horiz-adv-x="949" 
d="M1009 649l-6 -26q-50 -8 -66.5 -21t-46.5 -72q-43 -81 -255 -540h-31l-81 496h-3l-239 -496h-31l-60 537q-7 63 -18.5 76.5t-62.5 19.5l6 26h226l-7 -26l-25 -4q-31 -5 -37.5 -15.5t-2.5 -50.5l43 -418h2l237 502h29l83 -503h2q160 351 186 420q15 38 8.5 49t-44.5 16
l-26 4l6 26h214zM699 703l-18 -22q-48 20 -107 57q-72 -39 -126 -57l-13 22q76 48 136 104h25q41 -51 103 -104z" />
    <glyph glyph-name="wcircumflex" unicode="&#x175;" horiz-adv-x="670" 
d="M457 91h2q141 193 141 258q0 24 -10 46q-7 12 0 25q13 29 41 29q19 0 31 -15.5t12 -41.5q0 -34 -41 -105q-37 -59 -211 -299h-28q-9 123 -28 312h-2l-191 -312h-26q-1 109 -10 322q-3 66 -16 66q-11 0 -59 -51l-17 20q34 45 69 74.5t59 29.5q33 0 36 -99q3 -120 3 -236h2
l58 98l70 120l58 102h25l15 -162zM522 506l-23 -17q-33 37 -70 96q-64 -62 -109 -96l-20 17q85 98 130 163h22q24 -75 70 -163z" />
    <glyph glyph-name="Ycircumflex" unicode="&#x176;" horiz-adv-x="611" 
d="M686 649l-7 -26q-48 -5 -68 -17t-58 -59q-54 -69 -164 -225q-18 -24 -24 -57l-28 -141q-12 -64 -0.5 -77.5t79.5 -19.5l-6 -27h-267l7 27q61 5 76.5 19t28.5 78l27 135q5 28 -5 59l-89 234q-17 44 -31 54.5t-61 16.5l6 26h232l-7 -26l-35 -5q-26 -4 -30.5 -12t3.5 -30
q39 -114 91 -241q113 155 161 235q15 26 10 35t-33 13l-31 4l7 27h216zM539 706l-18 -22q-47 19 -107 58q-77 -41 -126 -58l-13 22q77 50 136 104h25q41 -51 103 -104z" />
    <glyph glyph-name="ycircumflex" unicode="&#x177;" horiz-adv-x="442" 
d="M239 75h2q96 148 121 213q13 37 13 62q0 23 -11 47q-5 11 2 25q13 27 42 27q17 0 28 -15.5t11 -39.5q1 -42 -35 -106q-76 -135 -181 -283q-107 -154 -180 -235l-104 -27l-8 22q134 87 235 224q-2 136 -31 326q-9 62 -21 62q-6 0 -23 -16.5t-35 -41.5l-17 23q27 43 60 75
t58 32q39 0 51 -117q12 -92 23 -257zM395 506l-23 -17q-30 33 -71 96q-59 -59 -109 -96l-19 17q85 98 130 163h22q24 -75 70 -163z" />
    <glyph glyph-name="Ydieresis" unicode="&#x178;" horiz-adv-x="611" 
d="M686 649l-7 -26q-48 -5 -68 -17t-58 -59q-54 -69 -164 -225q-18 -24 -24 -57l-28 -141q-12 -64 -0.5 -77.5t79.5 -19.5l-6 -27h-267l7 27q61 5 76.5 19t28.5 78l27 135q5 28 -5 59l-89 234q-17 44 -31 54.5t-61 16.5l6 26h232l-7 -26l-35 -5q-26 -4 -30.5 -12t3.5 -30
q39 -114 91 -241q113 155 161 235q15 26 10 35t-33 13l-31 4l7 27h216zM320 790q18 0 28.5 -12.5t10.5 -29.5q0 -23 -14.5 -39t-35.5 -16q-17 0 -28.5 11.5t-11.5 29.5q0 21 14 38.5t37 17.5zM506 790q18 0 28 -12t10 -30q0 -23 -14 -39t-36 -16q-17 0 -28 11.5t-11 29.5
q0 21 14 38.5t37 17.5z" />
    <glyph glyph-name="Zacute" unicode="&#x179;" horiz-adv-x="588" 
d="M611 649l6 -13l-491 -596q60 -6 156 -6q79 0 120 6t64 25q30 26 73 111l28 -12q-31 -103 -60 -164h-499l-6 15l495 601h-158q-70 0 -95.5 -8t-41.5 -28q-25 -28 -51 -95l-29 3q28 103 41 186h21q9 -16 18.5 -20.5t31.5 -4.5h377zM532 755l-2 -8l-187 -63l-13 24l161 102
q9 -2 24 -22.5t17 -32.5z" />
    <glyph glyph-name="zacute" unicode="&#x17a;" horiz-adv-x="418" 
d="M421 463l20 -21q-12 -15 -58 -67q-29 -33 -75 -81l-113 -117l-82 -85q29 3 76 -16q70 -24 90 -24q46 0 102 85l22 -18q-39 -77 -71 -108t-66 -31q-33 0 -134 48q-41 21 -62 6q-16 -10 -32 -34q-7 -10 -12 -9q-10 5 -12.5 15t9 32.5t39.5 52.5l278 286q-32 -6 -62 -3
q-52 6 -95 6q-32 0 -53 -20.5t-46 -64.5l-25 12q22 50 41 81q37 59 73 59q34 0 106 -12q51 -10 81 -10q26 0 61 38zM409 661l-155 -170l-23 16q61 96 92 155q10 4 41.5 8t41.5 2z" />
    <glyph glyph-name="Zdotaccent" unicode="&#x17b;" horiz-adv-x="588" 
d="M611 649l6 -13l-491 -596q60 -6 156 -6q79 0 120 6t64 25q30 26 73 111l28 -12q-31 -103 -60 -164h-499l-6 15l495 601h-158q-70 0 -95.5 -8t-41.5 -28q-25 -28 -51 -95l-29 3q28 103 41 186h21q9 -16 18.5 -20.5t31.5 -4.5h377zM385 801q19 0 30 -13t11 -32
q0 -24 -15 -41t-37 -17q-18 0 -30 12.5t-12 31.5q0 22 14.5 40.5t38.5 18.5z" />
    <glyph glyph-name="zdotaccent" unicode="&#x17c;" horiz-adv-x="418" 
d="M421 463l20 -21q-12 -15 -58 -67q-29 -33 -75 -81l-113 -117l-82 -85q29 3 76 -16q70 -24 90 -24q46 0 102 85l22 -18q-39 -77 -71 -108t-66 -31q-33 0 -134 48q-41 21 -62 6q-16 -10 -32 -34q-7 -10 -12 -9q-10 5 -12.5 15t9 32.5t39.5 52.5l278 286q-32 -6 -62 -3
q-52 6 -95 6q-32 0 -53 -20.5t-46 -64.5l-25 12q22 50 41 81q37 59 73 59q34 0 106 -12q51 -10 81 -10q26 0 61 38zM291 635q19 0 30 -13t11 -31q0 -24 -15 -41t-38 -17q-18 0 -30 12.5t-12 31.5q0 21 15 39.5t39 18.5z" />
    <glyph glyph-name="Zcaron" unicode="&#x17d;" horiz-adv-x="588" 
d="M611 649l6 -13l-491 -596q60 -6 156 -6q79 0 120 6t64 25q30 26 73 111l28 -12q-31 -103 -60 -164h-499l-6 15l495 601h-158q-70 0 -95.5 -8t-41.5 -28q-25 -28 -51 -95l-29 3q28 103 41 186h21q9 -16 18.5 -20.5t31.5 -4.5h377zM510 814l14 -22q-86 -57 -136 -104h-25
q-41 51 -103 104l19 22q41 -18 106 -58q73 39 125 58z" />
    <glyph glyph-name="zcaron" unicode="&#x17e;" horiz-adv-x="418" 
d="M421 463l20 -21q-12 -15 -58 -67q-29 -33 -75 -81l-113 -117l-82 -85q29 3 76 -16q70 -24 90 -24q46 0 102 85l22 -18q-39 -77 -71 -108t-66 -31q-33 0 -134 48q-41 21 -62 6q-16 -10 -32 -34q-7 -10 -12 -9q-10 5 -12.5 15t9 32.5t39.5 52.5l278 286q-32 -6 -62 -3
q-52 6 -95 6q-32 0 -53 -20.5t-46 -64.5l-25 12q22 50 41 81q37 59 73 59q34 0 106 -12q51 -10 81 -10q26 0 61 38zM384 673l22 -18q-78 -88 -130 -162h-22q-25 77 -71 162l25 18q36 -42 69 -96q67 65 107 96z" />
    <glyph glyph-name="longs" unicode="&#x17f;" horiz-adv-x="228" 
d="M346 712q24 0 41.5 -14t16.5 -29q0 -24 -27 -43q-13 -10 -22 0q-31 33 -62 33t-54.5 -52.5t-46.5 -195.5q-42 -260 -57 -330q-24 -113 -51 -173.5t-70 -103.5q-59 -61 -114 -61q-22 0 -42 13.5t-19 29.5q0 20 27 42q11 10 21 1q27 -25 61 -25q25 0 42 19q35 35 70 250
q37 235 44 273q35 197 108 287q28 35 65.5 57t68.5 22z" />
    <glyph glyph-name="florin" unicode="&#x192;" horiz-adv-x="477" 
d="M210 370l12 53q27 111 103 174q66 55 118 55q21 0 39 -13t17 -29q0 -22 -21 -37q-11 -10 -21 0q-34 29 -64 29q-25 0 -45 -27q-23 -32 -56 -205h121l-11 -36h-117l-41 -191q-37 -177 -130 -242q-52 -39 -91 -39q-20 0 -37 13t-16 27q0 19 23 40q10 8 20 0q28 -26 60 -26
q28 0 45 37q22 51 44 170l39 211h-96l10 36h95z" />
    <glyph glyph-name="Ohorn" unicode="&#x1a0;" horiz-adv-x="708" 
d="M332 -15q-118 0 -192 78.5t-74 205.5q0 160 105.5 278t258.5 118q32 0 64 -7q64 -14 97 -14q35 0 56.5 11t21.5 25q0 18 -30 23q-18 3 -18 22t17.5 33t37.5 14q46 0 46 -49q0 -48 -35 -78t-92 -36q46 -36 73.5 -95t27.5 -136q0 -162 -104 -277.5t-260 -115.5zM340 20
q79 0 140.5 58.5t91 141.5t29.5 168q0 108 -43.5 175t-135.5 67q-75 0 -136 -56.5t-92.5 -140.5t-31.5 -173q0 -106 45 -173t133 -67z" />
    <glyph glyph-name="ohorn" unicode="&#x1a1;" horiz-adv-x="470" 
d="M214 28q17 0 32 6q43 18 76 91.5t33 165.5q0 59 -22.5 89.5t-58.5 30.5q-18 0 -38 -9q-37 -16 -71.5 -82.5t-34.5 -170.5q0 -56 22.5 -88.5t61.5 -32.5zM178 -12q-67 0 -99.5 44.5t-32.5 111.5q0 93 43 165.5t109 107.5q61 32 108 32q27 0 45 -6q20 -6 40 -6
q29 0 45.5 10t16.5 23q0 11 -6 15.5t-24 7.5q-19 5 -19 24q0 20 15 33t35 13q21 0 34 -14.5t13 -41.5q0 -39 -26 -65t-70 -36q34 -42 34 -113q0 -67 -28 -133.5t-79 -108.5q-75 -63 -154 -63z" />
    <glyph glyph-name="Uhorn" unicode="&#x1af;" horiz-adv-x="707" 
d="M537 623l6 26h106q116 0 116 33q0 18 -29 23q-18 3 -18 22t17 33t37 14q46 0 46 -49q0 -73 -81 -102q-28 -9 -39.5 -20t-18.5 -35q-16 -54 -40 -180l-15 -77q-38 -185 -119 -260q-70 -66 -170 -66q-96 0 -154 54q-77 72 -45 242l48 253q11 58 1 70.5t-70 18.5l6 26h248
l-6 -26q-58 -6 -72 -18.5t-25 -71.5l-46 -244q-25 -129 16 -190t122 -61q89 0 143 67.5t83 213.5l14 69q24 123 27 180q1 30 -16 40.5t-72 14.5z" />
    <glyph glyph-name="uhorn" unicode="&#x1b0;" horiz-adv-x="533" 
d="M492 114l13 -24q-35 -43 -78 -72.5t-67 -29.5q-39 0 -15 106q5 20 19 88h-2q-81 -107 -161 -163q-43 -31 -81 -31q-64 0 -33 127l54 230q8 32 -3 34q-10 0 -70 -48l-11 24q42 42 84 68t63 26q12 0 17 -8t3.5 -26.5t-9.5 -52.5l-55 -240q-15 -66 12 -66q39 0 106 72
t101 135q16 67 37 167l32 6q88 16 88 41q0 11 -6 15.5t-24 8.5q-19 5 -19 23q0 20 15 33t34 13q22 0 35 -14.5t13 -41.5q0 -70 -99 -104q-41 -171 -68 -309q-8 -39 3 -39q7 0 30 16t42 36z" />
    <glyph glyph-name="Aringacute" unicode="&#x1fa;" horiz-adv-x="664" 
d="M621 27l-7 -27h-236l7 27q50 5 61 16t6 45l-25 148h-209q-50 -94 -70 -136q-21 -45 -12 -56.5t67 -16.5l-6 -27h-215l7 27q47 6 65 20.5t53 75.5l301 533l31 8l28 -177q26 -166 64 -373q9 -54 23 -68t67 -19zM421 278l-40 259h-2q-115 -212 -139 -259h181zM521 769
q-1 -38 -29.5 -62t-66.5 -24q-35 0 -57.5 22t-21.5 56q1 40 29 65t66 25q34 0 57.5 -22.5t22.5 -59.5zM475 770q1 22 -9 35.5t-29 13.5t-32 -16t-13 -39q-1 -21 9 -34t28 -13q19 0 32.5 15t13.5 38zM589 946l-2 -7l-187 -64l-13 25l161 102q9 -3 24 -23.5t17 -32.5z" />
    <glyph glyph-name="aringacute" unicode="&#x1fb;" horiz-adv-x="490" 
d="M453 116l12 -24q-37 -46 -80.5 -75t-65.5 -29q-35 0 -18 88l20 95h-2q-55 -78 -129 -138q-55 -45 -93 -45q-22 0 -40 29t-18 84q0 76 33 151t87 120q40 33 90.5 55t95.5 22q25 0 62 -7q28 -6 38 -6l3 -4q-34 -132 -69 -325q-9 -43 2 -43q7 0 29.5 16t42.5 36zM149 52
q28 0 93.5 71t92.5 125q7 27 33 144q-28 14 -67 14q-44 0 -71 -21q-49 -36 -78.5 -112.5t-29.5 -154.5q0 -32 8 -49t19 -17zM344 665q35 0 59 -23.5t23 -62.5q-1 -38 -30 -62t-67 -24q-37 0 -60 22.5t-21 57.5q1 41 30 66.5t66 25.5zM341 631q-20 0 -33 -15.5t-14 -39.5
q-1 -22 9.5 -36t28.5 -14q20 0 33.5 15.5t14.5 39.5q1 22 -9.5 36t-29.5 14zM495 857l-155 -170l-23 15q64 101 93 156q9 3 40.5 7t42.5 3z" />
    <glyph glyph-name="AEacute" unicode="&#x1fc;" horiz-adv-x="864" 
d="M850 499l-29 -2q-2 62 -14 88q-9 18 -28.5 24.5t-73.5 6.5h-75q-25 0 -31 -5.5t-11 -32.5l-46 -243h97q62 0 80.5 12t36.5 62h29l-38 -191h-29q1 55 -12 67t-77 12h-94l-29 -157q-13 -76 5 -92q19 -14 103 -14q56 0 82.5 6.5t47.5 26.5q31 28 67 95l28 -10q-1 -2 -27 -68
t-35 -84h-469l6 26q63 6 79 20t28 76l35 175h-175q-102 -150 -134 -207q-18 -32 -14 -42.5t36 -15.5l31 -5l-6 -27h-231l6 27q48 6 70.5 19.5t57.5 60.5l332 468q16 23 11.5 30t-36.5 11l-53 5l8 28h508zM308 335h155l56 280q-13 0 -30 -16zM757 755l-2 -8l-188 -63l-12 24
l161 102q9 -2 24 -22.5t17 -32.5z" />
    <glyph glyph-name="aeacute" unicode="&#x1fd;" horiz-adv-x="664" 
d="M613 127l16 -22q-110 -116 -217 -116q-41 0 -72 32t-31 109q0 14 2 23l-2 1q-50 -67 -119 -120q-23 -19 -50.5 -32t-45.5 -13q-21 0 -38.5 26.5t-17.5 83.5q0 77 31 152t82 119q38 34 92 56.5t98 22.5q22 0 43 -6q15 -2 39 -2l4 -4l-14 -58l2 -1q32 32 76 51.5t77 19.5
q39 0 62.5 -23t23.5 -56q0 -44 -44.5 -82.5t-101 -61.5t-123.5 -38q-1 -11 -1 -35q0 -43 17.5 -74t55.5 -31q74 0 156 79zM298 405q-44 0 -67 -15q-43 -28 -72 -96q-38 -83 -38 -174q0 -64 26 -64q15 0 41 17t51 45q59 65 82 113q27 73 39 160q-23 14 -62 14zM530 406
q-29 0 -51 -15q-68 -43 -89 -170q102 27 145 59.5t44 73.5q0 26 -13.5 39t-35.5 13zM545 661l-155 -170l-23 16q61 96 92 155q10 4 41.5 8t41.5 2z" />
    <glyph glyph-name="Oslashacute" unicode="&#x1fe;" horiz-adv-x="708" 
d="M630 693l28 -21l-51 -71q89 -79 89 -222q0 -164 -105 -279t-263 -115q-81 0 -142 41l-51 -69l-26 24l48 66q-91 81 -91 221q0 160 106 278.5t259 118.5q86 0 147 -43zM199 104l346 472q-37 54 -121 54q-77 0 -139 -56.5t-93.5 -139.5t-31.5 -171q0 -102 39 -159zM565 545
l-344 -472q44 -53 118 -53q79 0 141 58t92 140t30 168q0 100 -37 159zM567 764l-2 -8l-188 -63l-13 24l161 102q9 -2 24.5 -22.5t17.5 -32.5z" />
    <glyph glyph-name="oslashacute" unicode="&#x1ff;" horiz-adv-x="472" 
d="M417 483l25 -19l-39 -52q38 -41 38 -120q0 -64 -28.5 -130.5t-78.5 -109.5q-31 -28 -75 -46t-84 -18q-41 0 -67 18l-39 -53l-23 22l37 51q-36 40 -36 116q0 95 41 165.5t104 105.5q63 36 117 36q42 0 70 -18zM134 93l206 282q-18 35 -64 35q-22 0 -38 -7q-37 -15 -75 -81
t-39 -169q0 -20 10 -60zM356 343l-208 -281q21 -35 60 -35q19 0 37 8q44 17 81.5 90t36.5 166q0 31 -7 52zM421 661l-155 -170l-23 16q61 96 92 155q10 4 41.5 8t41.5 2z" />
    <glyph glyph-name="uni0218" unicode="&#x218;" horiz-adv-x="468" 
d="M38 195l27 3q5 -32 15 -60.5t28.5 -57t49 -45t69.5 -16.5q54 0 87 35t33 94q0 40 -22.5 71.5t-70.5 69.5l-28 22q-32 26 -51.5 44.5t-40 55.5t-20.5 75q0 78 56.5 128.5t146.5 50.5q47 0 95 -17l44 -16q-2 -19 -2.5 -42.5t-0.5 -53.5v-44l-29 -3q-15 143 -120 143
q-51 0 -81.5 -34.5t-30.5 -82.5q0 -39 23 -68.5t70 -65.5l30 -22q57 -43 86.5 -85.5t29.5 -97.5q0 -85 -64 -138t-154 -53q-55 0 -104 20t-68 42q0 10 -1 60t-2 88zM212 -51q25 0 42 -17.5t17 -46.5q1 -48 -34.5 -76t-83.5 -38l-8 27q68 24 68 58q0 24 -36 35q-12 2 -12 19
t13.5 28t33.5 11z" />
    <glyph glyph-name="uni0219" unicode="&#x219;" horiz-adv-x="337" 
d="M113 -12q-36 0 -68.5 23t-32.5 49q-1 24 29 42q17 8 25 -3q41 -61 96 -61q29 0 47.5 17.5t18.5 42.5q0 38 -58 84q-41 31 -64 59t-23 63q0 52 52 97q23 20 55 34t56 14q32 0 55 -18t23 -38q0 -26 -25 -41q-13 -8 -22 4q-36 45 -78 45q-22 0 -38 -15.5t-16 -40.5
q0 -24 16 -43.5t49 -45.5q46 -35 65 -60.5t19 -56.5q0 -56 -59.5 -103.5t-121.5 -47.5zM118 -43q25 0 42 -18t17 -47q1 -48 -34.5 -76t-83.5 -38l-8 27q34 13 51 26t17 32q0 24 -36 35q-12 3 -12 19q0 17 13.5 28.5t33.5 11.5z" />
    <glyph glyph-name="uni021A" unicode="&#x21a;" horiz-adv-x="603" 
d="M636 674h21q-9 -53 -23 -175l-30 -3q0 64 -12 89q-7 18 -28.5 24.5t-78.5 6.5h-60l-93 -496q-11 -60 1.5 -74t80.5 -19l-6 -27h-272l6 27q63 4 79 18.5t27 74.5l95 496h-51q-62 0 -85 -6t-38 -24q-22 -26 -49 -90h-30q29 94 47 178h21q8 -16 17.5 -20.5t31.5 -4.5h376
q19 0 28.5 5t24.5 20zM265 -39q24 0 41 -18t18 -47q0 -48 -35.5 -76t-82.5 -38l-8 28q67 24 67 57q0 24 -35 35q-12 3 -12 19q0 17 13.5 28.5t33.5 11.5z" />
    <glyph glyph-name="uni021B" unicode="&#x21b;" horiz-adv-x="307" 
d="M338 433l-26 -34l-99 -5l-59 -276q-12 -60 6 -60q12 0 41.5 19.5t48.5 38.5l14 -21q-31 -37 -78 -72t-83 -35q-13 0 -20.5 11.5t-10 40.5t9.5 80l59 274h-74l-3 9l25 30h60l23 95l76 62l9 -6l-35 -151h116zM117 -40q25 0 41.5 -17.5t17.5 -46.5q0 -48 -35.5 -76
t-82.5 -38l-8 27q33 13 50 26t17 32q0 24 -35 35q-12 3 -12 19q0 17 13.5 28t33.5 11z" />
    <glyph glyph-name="uni021C" unicode="&#x21c;" horiz-adv-x="495" 
d="M151 271l-10 29q239 78 239 222q0 51 -28.5 79t-72.5 28q-50 0 -85.5 -35t-68.5 -108l-28 10q14 40 41 132q19 4 52.5 14.5t61 16t58.5 5.5q73 0 117.5 -35.5t44.5 -93.5q0 -55 -39 -97.5t-112 -85.5v-2q68 -15 106.5 -57.5t38.5 -103.5q0 -81 -61 -149t-155.5 -108.5
t-204.5 -54.5l-57 46l9 21q53 -14 99 -14q107 0 191 65.5t84 169.5q0 61 -35.5 95.5t-83.5 34.5q-38 0 -101 -24z" />
    <glyph glyph-name="uni021D" unicode="&#x21d;" horiz-adv-x="364" 
d="M66 107l-6 26q92 40 139 83t47 99q0 34 -21 54.5t-51 20.5q-49 0 -120 -60l-14 22q95 97 175 97q49 0 80 -30.5t31 -75.5q0 -79 -116 -157v-2q51 -10 81.5 -44t30.5 -84q0 -104 -104.5 -188.5t-235.5 -105.5l-43 36l7 19q30 -5 57 -5q94 0 164 62t70 150q0 49 -26 77
t-61 28q-30 0 -84 -22z" />
    <glyph glyph-name="uni0232" unicode="&#x232;" horiz-adv-x="611" 
d="M686 649l-7 -26q-48 -5 -68 -17t-58 -59q-54 -69 -164 -225q-18 -24 -24 -57l-28 -141q-12 -64 -0.5 -77.5t79.5 -19.5l-6 -27h-267l7 27q61 5 76.5 19t28.5 78l27 135q5 28 -5 59l-89 234q-17 44 -31 54.5t-61 16.5l6 26h232l-7 -26l-35 -5q-26 -4 -30.5 -12t3.5 -30
q39 -114 91 -241q113 155 161 235q15 26 10 35t-33 13l-31 4l7 27h216zM542 764l-13 -52h-227l13 52h227z" />
    <glyph glyph-name="uni0233" unicode="&#x233;" horiz-adv-x="442" 
d="M239 75h2q96 148 121 213q13 37 13 62q0 23 -11 47q-5 11 2 25q13 27 42 27q17 0 28 -15.5t11 -39.5q1 -42 -35 -106q-76 -135 -181 -283q-107 -154 -180 -235l-104 -27l-8 22q134 87 235 224q-2 136 -31 326q-9 62 -21 62q-6 0 -23 -16.5t-35 -41.5l-17 23q27 43 60 75
t58 32q39 0 51 -117q12 -92 23 -257zM399 598l-12 -51h-224l13 51h223z" />
    <glyph glyph-name="uni0237" unicode="&#x237;" horiz-adv-x="266" 
d="M68 321l-13 23q43 46 89 75.5t69 29.5q29 0 8 -103l-29 -145l-27 -135q-37 -183 -118 -260q-65 -64 -107 -64q-15 0 -29 9.5t-14 23.5q0 22 24 44q12 9 22 4q28 -16 49 -16q42 0 68 107q8 36 80 400q2 7 3 13t2 11t1.5 9t0.5 7v6v4l-1 4l-1 2h-2l-2 1q-7 0 -30 -15.5
t-43 -34.5z" />
    <glyph glyph-name="circumflex" unicode="&#x2c6;" 
d="M373 506l-23 -17q-30 33 -71 96q-59 -59 -109 -96l-19 17q85 98 130 163h22q24 -75 70 -163z" />
    <glyph glyph-name="caron" unicode="&#x2c7;" 
d="M377 673l22 -18q-78 -88 -130 -162h-22q-25 77 -71 162l25 18q36 -42 69 -96q67 65 107 96z" />
    <glyph glyph-name="uni02C9" unicode="&#x2c9;" 
d="M378 598l-12 -51h-224l13 51h223z" />
    <glyph glyph-name="breve" unicode="&#x2d8;" 
d="M362 642h26q-11 -69 -47.5 -100t-84.5 -31q-49 0 -75.5 31t-14.5 100h25q1 -36 20.5 -55t52.5 -19q70 0 98 74z" />
    <glyph glyph-name="dotaccent" unicode="&#x2d9;" 
d="M277 635q19 0 30 -13t11 -31q0 -24 -15 -41t-38 -17q-17 0 -29 12.5t-12 31.5q0 21 14.5 39.5t38.5 18.5z" />
    <glyph glyph-name="ring" unicode="&#x2da;" 
d="M278 665q35 0 59 -23.5t23 -62.5q-1 -38 -30 -62t-67 -24q-37 0 -60 22.5t-21 57.5q1 41 30 66.5t66 25.5zM274 631q-19 0 -32 -15.5t-14 -39.5q-1 -22 9.5 -36t28.5 -14q20 0 33.5 15.5t14.5 39.5q1 22 -9.5 36t-30.5 14z" />
    <glyph glyph-name="ogonek" unicode="&#x2db;" 
d="M257 -151l8 -27l-51 -28q-20 -9 -38 -9q-29 0 -48 17t-19 46q0 60 125 153h41q-98 -85 -98 -131q0 -31 35 -31q23 0 45 10z" />
    <glyph glyph-name="tilde" unicode="&#x2dc;" 
d="M370 620l24 -12q-34 -85 -81 -85q-17 0 -67 23q-26 12 -42 12q-23 0 -48 -43l-22 15q17 43 38.5 63t41.5 20q18 0 58 -18q37 -16 53 -16q20 0 45 41z" />
    <glyph glyph-name="hungarumlaut" unicode="&#x2dd;" 
d="M254 648l-115 -158l-26 16q46 100 63 149q10 3 38.5 4.5t37.5 -0.5zM387 648l-114 -158l-24 16l21 53l27 64l13 32q10 3 38 4.5t37 -0.5z" />
    <glyph glyph-name="uni0374" unicode="&#x374;" horiz-adv-x="235" 
d="M141 414l-23 11q42 114 81 233q10 3 37.5 -0.5t35.5 -10.5v-16z" />
    <glyph glyph-name="uni0375" unicode="&#x375;" horiz-adv-x="235" 
d="M15 -118l-26 11q62 171 82 236q10 3 37.5 -1.5t36.5 -9.5l-1 -15q-78 -140 -129 -221z" />
    <glyph glyph-name="uni037E" unicode="&#x37e;" horiz-adv-x="235" 
d="M139 275q-24 0 -39 16t-15 42q0 30 18.5 49.5t46.5 19.5q23 0 38.5 -17t15.5 -42q0 -31 -19.5 -49.5t-45.5 -18.5zM12 -117l-21 12q47 128 80 234q10 2 37.5 -2t36.5 -9l-1 -16q-76 -131 -132 -219z" />
    <glyph glyph-name="tonos" unicode="&#x384;" horiz-adv-x="397" 
d="M328 660l-106 -171l-25 14q30 91 51 164q10 4 40 5.5t40 -0.5v-12z" />
    <glyph glyph-name="dieresistonos" unicode="&#x385;" 
d="M359 513q-18 0 -29 11.5t-11 30.5q0 21 13.5 37.5t36.5 16.5q18 0 28 -12t10 -31q0 -23 -14 -38t-34 -15zM335 661l-100 -172l-29 8q17 51 49 163q8 4 37.5 7.5t39.5 2.5zM144 513q-18 0 -29 11.5t-11 30.5q0 21 13.5 37.5t36.5 16.5q18 0 28 -12t10 -31q0 -23 -14 -38
t-34 -15z" />
    <glyph glyph-name="Alphatonos" unicode="&#x386;" horiz-adv-x="664" 
d="M621 27l-7 -27h-236l7 27q50 5 61 16t6 45l-25 148h-209q-50 -94 -70 -136q-21 -45 -12 -56.5t67 -16.5l-6 -27h-215l7 27q47 6 65 20.5t53 75.5l301 533l31 8l28 -177q26 -166 64 -373q9 -54 23 -68t67 -19zM421 278l-40 259h-2q-115 -212 -139 -259h181zM279 690
l-106 -171l-25 14q32 97 50 164q10 4 40.5 5.5t39.5 -0.5z" />
    <glyph glyph-name="anoteleia" unicode="&#x387;" horiz-adv-x="235" 
d="M129 214q-25 0 -40 16t-15 42q0 31 18 50.5t47 19.5q24 0 39.5 -16.5t15.5 -42.5q0 -32 -19.5 -50.5t-45.5 -18.5z" />
    <glyph glyph-name="Epsilontonos" unicode="&#x388;" horiz-adv-x="559" 
d="M128 649h435q-3 -18 -19 -153l-29 -2q-2 65 -13 88q-9 19 -27.5 26.5t-69.5 7.5h-78q-25 0 -31.5 -6.5t-12.5 -34.5l-41 -217h96q62 0 79 11.5t35 61.5h29l-38 -189h-28q2 54 -10 65.5t-75 11.5h-96l-33 -175q-15 -80 5 -96q18 -14 101 -14q55 0 83 7t48 27q29 28 67 96
l28 -10l-17 -42l-26 -66l-19 -46h-468l6 27q61 5 77 19t28 74l79 410q12 60 1.5 73.5t-72.5 19.5zM85 690l-107 -171l-25 14q21 60 51 164q10 4 40.5 5.5t39.5 -0.5z" />
    <glyph glyph-name="Etatonos" unicode="&#x389;" horiz-adv-x="742" 
d="M787 649l-6 -26q-58 -6 -72.5 -20t-26.5 -76l-77 -406q-12 -60 -1 -74.5t71 -19.5l-6 -27h-254l7 27q59 5 74.5 19.5t26.5 74.5l38 202h-327l-38 -202q-11 -62 -0.5 -75.5t71.5 -18.5l-6 -27h-248l6 27q56 5 70 19t25 75l78 406q12 62 1.5 76t-72.5 20l7 26h247l-6 -26
q-54 -6 -69 -21t-26 -75l-31 -163h326l32 163q11 62 1 76t-69 20l6 26h248zM86 690l-106 -171l-25 14q32 97 50 164q10 4 40.5 5.5t39.5 -0.5z" />
    <glyph glyph-name="Iotatonos" unicode="&#x38a;" horiz-adv-x="335" 
d="M380 649l-6 -26q-58 -6 -72 -18.5t-25 -67.5l-81 -421q-11 -58 0 -71t73 -18l-6 -27h-256l7 27q58 4 73.5 18t26.5 71l81 421q10 54 -1.5 67t-74.5 19l7 26h254zM90 690l-107 -171l-25 14q21 60 51 164q10 4 40.5 5.5t39.5 -0.5z" />
    <glyph glyph-name="Omicrontonos" unicode="&#x38c;" horiz-adv-x="708" 
d="M430 665q119 0 192.5 -80t73.5 -207q0 -162 -104 -277.5t-260 -115.5q-118 0 -192 78.5t-74 205.5q0 160 105.5 278t258.5 118zM422 630q-75 0 -136 -56.5t-92.5 -140.5t-31.5 -173q0 -106 45 -173t133 -67q79 0 140.5 58.5t91 141.5t29.5 168q0 108 -43.5 175t-135.5 67
zM140 680l-106 -171l-25 14q32 97 50 164q10 4 40.5 5.5t39.5 -0.5z" />
    <glyph glyph-name="Upsilontonos" unicode="&#x38e;" horiz-adv-x="646" 
d="M728 634l-9 -24q-16 2 -28 2q-37 0 -82 -27.5t-89 -82.5q-52 -67 -93 -159t-57 -178l-8 -46q-11 -59 1.5 -73.5t79.5 -18.5l-5 -27h-273l6 27q63 4 80.5 19t28.5 73l10 51q34 164 4 292q-33 146 -144 146q-36 0 -56 -7l-6 24q62 40 122 40q62 0 99.5 -47.5t50.5 -120.5
q18 -75 8 -198h4q38 116 91 197q44 76 99 122.5t106 46.5q36 0 60 -31zM63 690l-106 -171l-25 14q32 97 50 164q10 4 40.5 5.5t39.5 -0.5z" />
    <glyph glyph-name="Omegatonos" unicode="&#x38f;" horiz-adv-x="735" 
d="M666 136l26 -2l-43 -134h-250l-6 18l22 22l27 26l26 29l30 34l28 36l26 41l22 44l20 48l10 49l5 54q0 103 -45 165.5t-130 62.5q-110 0 -172 -95.5t-62 -222.5q0 -139 79 -294l-8 -17h-235l-3 134l27 1q9 -41 21.5 -54t38.5 -13h100q-31 41 -49.5 68.5t-41 84.5
t-22.5 109q0 140 97 237.5t239 97.5q115 0 186.5 -72.5t71.5 -196.5q0 -26 -4.5 -50.5t-14.5 -48t-20 -42.5t-27 -41l-29 -35l-32 -33l-30 -29l-32 -27l-25 -22h91q31 0 46 11t42 57zM143 680l-107 -171l-25 14q30 85 51 164q10 4 40.5 5.5t39.5 -0.5z" />
    <glyph glyph-name="iotadieresistonos" unicode="&#x390;" horiz-adv-x="249" 
d="M201 110l12 -22q-26 -33 -71 -66.5t-71 -33.5q-41 0 -17 102l74 338l76 21l3 -8q-43 -164 -80 -345q-7 -34 3 -34q18 0 71 48zM293 513q-18 0 -29 11.5t-11 30.5q0 21 13.5 37.5t36.5 16.5q18 0 28.5 -12t10.5 -31q0 -23 -14 -38t-35 -15zM269 661l-102 -172l-27 9
q14 42 49 162q8 4 37.5 7.5t39.5 2.5zM79 513q-19 0 -30 11.5t-11 30.5q0 21 13.5 37.5t36.5 16.5q18 0 28.5 -12.5t10.5 -30.5q0 -23 -14 -38t-34 -15z" />
    <glyph glyph-name="Alpha" unicode="&#x391;" horiz-adv-x="664" 
d="M621 27l-7 -27h-236l7 27q50 5 61 16t6 45l-25 148h-209q-50 -94 -70 -136q-21 -45 -12 -56.5t67 -16.5l-6 -27h-215l7 27q47 6 65 20.5t53 75.5l301 533l31 8l28 -177q26 -166 64 -373q9 -54 23 -68t67 -19zM421 278l-40 259h-2q-115 -212 -139 -259h181z" />
    <glyph glyph-name="Beta" unicode="&#x392;" horiz-adv-x="579" 
d="M131 649h234q188 0 188 -137q0 -64 -45 -103t-118 -55v-2q65 -13 106 -52t41 -104q0 -53 -31.5 -95t-83.5 -67q-72 -34 -202 -34h-213l6 27q59 5 74 19t27 74l81 418q11 54 0.5 66.5t-70.5 18.5zM242 367h51q81 0 125.5 38.5t44.5 104.5q0 58 -34 83t-84 25
q-31 0 -46 -10q-14 -9 -20 -44zM235 334l-40 -212q-9 -53 8.5 -70.5t69.5 -17.5q74 0 121 46t47 121q0 133 -157 133h-49z" />
    <glyph glyph-name="Gamma" unicode="&#x393;" horiz-adv-x="501" 
d="M127 649h424l-4 -32l-7 -61l-7 -61l-29 -2q-2 62 -16 92q-7 16 -26 23t-64 7h-73q-25 0 -31.5 -6t-11.5 -33l-87 -454q-12 -61 1.5 -75t86.5 -20l-7 -27h-270l7 27q58 6 73.5 20.5t26.5 74.5l79 404q11 63 0.5 76.5t-71.5 20.5z" />
    <glyph glyph-name="uni0394" unicode="&#x394;" horiz-adv-x="613" 
d="M546 24l-6 -24h-536l6 24l381 632l28 9zM456 48l-91 497l-284 -497h375z" />
    <glyph glyph-name="Epsilon" unicode="&#x395;" horiz-adv-x="559" 
d="M128 649h435q-3 -18 -19 -153l-29 -2q-2 65 -13 88q-9 19 -27.5 26.5t-69.5 7.5h-78q-25 0 -31.5 -6.5t-12.5 -34.5l-41 -217h96q62 0 79 11.5t35 61.5h29l-38 -189h-28q2 54 -10 65.5t-75 11.5h-96l-33 -175q-15 -80 5 -96q18 -14 101 -14q55 0 83 7t48 27q29 28 67 96
l28 -10l-17 -42l-26 -66l-19 -46h-468l6 27q61 5 77 19t28 74l79 410q12 60 1.5 73.5t-72.5 19.5z" />
    <glyph glyph-name="Zeta" unicode="&#x396;" horiz-adv-x="588" 
d="M611 649l6 -13l-491 -596q60 -6 156 -6q79 0 120 6t64 25q30 26 73 111l28 -12q-31 -103 -60 -164h-499l-6 15l495 601h-158q-70 0 -95.5 -8t-41.5 -28q-25 -28 -51 -95l-29 3q28 103 41 186h21q9 -16 18.5 -20.5t31.5 -4.5h377z" />
    <glyph glyph-name="Eta" unicode="&#x397;" horiz-adv-x="742" 
d="M787 649l-6 -26q-58 -6 -72.5 -20t-26.5 -76l-77 -406q-12 -60 -1 -74.5t71 -19.5l-6 -27h-254l7 27q59 5 74.5 19.5t26.5 74.5l38 202h-327l-38 -202q-11 -62 -0.5 -75.5t71.5 -18.5l-6 -27h-248l6 27q56 5 70 19t25 75l78 406q12 62 1.5 76t-72.5 20l7 26h247l-6 -26
q-54 -6 -69 -21t-26 -75l-31 -163h326l32 163q11 62 1 76t-69 20l6 26h248z" />
    <glyph glyph-name="Theta" unicode="&#x398;" horiz-adv-x="711" 
d="M429 665q120 0 193.5 -80t73.5 -207q0 -162 -104 -277.5t-260 -115.5q-118 0 -191.5 78.5t-73.5 204.5q0 160 104.5 278.5t257.5 118.5zM424 630q-76 0 -137.5 -56.5t-93 -140.5t-31.5 -174q0 -107 45.5 -173t133.5 -66q79 0 140 58.5t90.5 141.5t29.5 169
q0 108 -43 174.5t-134 66.5zM530 431l-36 -193h-28q2 41 -9 52.5t-46 11.5h-77q-34 0 -45.5 -10.5t-24.5 -53.5h-27l36 193h27q-3 -43 4 -53t42 -10h85q35 0 45.5 9.5t25.5 53.5h28z" />
    <glyph glyph-name="Iota" unicode="&#x399;" horiz-adv-x="335" 
d="M380 649l-6 -26q-58 -6 -72 -18.5t-25 -67.5l-81 -421q-11 -58 0 -71t73 -18l-6 -27h-256l7 27q58 4 73.5 18t26.5 71l81 421q10 54 -1.5 67t-74.5 19l7 26h254z" />
    <glyph glyph-name="Kappa" unicode="&#x39a;" horiz-adv-x="653" 
d="M715 649l-7 -26q-56 -8 -81.5 -19.5t-72.5 -48.5t-219 -186q88 -145 182 -275q28 -38 47.5 -50t62.5 -17l-8 -27h-144q-176 273 -186 291q-15 25 -28.5 31t-29.5 -2l-35 -192q-12 -67 -2 -81.5t69 -19.5l-6 -27h-245l7 27q55 5 69.5 20t27.5 81l76 398q12 62 2 76t-69 21
l7 26h242l-6 -26q-57 -7 -71 -21t-26 -76l-34 -178q34 11 75 45q112 95 202 184q22 20 20.5 28.5t-27.5 12.5l-30 5l7 26h231z" />
    <glyph glyph-name="Lambda" unicode="&#x39b;" horiz-adv-x="670" 
d="M620 27l-7 -27h-240l7 27q52 6 64 16.5t7 41.5l-75 449h-2q-160 -297 -222 -430q-21 -43 -11 -57.5t68 -19.5l-6 -27h-221l6 27q46 7 66.5 23.5t53.5 75.5l296 530l29 8q87 -502 97 -553q10 -52 24 -65t66 -19z" />
    <glyph glyph-name="Mu" unicode="&#x39c;" horiz-adv-x="876" 
d="M910 649l-7 -26q-64 -6 -78 -19t-24 -76q-29 -199 -54 -393q-4 -27 -5 -42t1.5 -28t5.5 -18t15 -10t22.5 -6.5t34.5 -3.5l-6 -27h-253l6 27q59 6 73 21t25 87q9 66 20 137l25 152l21 132h-3l-331 -552h-22l-102 542h-3l-72 -264q-41 -152 -47 -192q-5 -34 8.5 -46
t67.5 -17l-6 -27h-225l6 27q43 4 62.5 16.5t31.5 44.5q29 76 72 229l56 190q12 41 15.5 59.5t-5 32t-25.5 17t-56 7.5l7 26h167l109 -501l311 501h162z" />
    <glyph glyph-name="Nu" unicode="&#x39d;" horiz-adv-x="705" 
d="M766 649l-6 -26q-44 -3 -60.5 -16t-26.5 -47q-16 -54 -38 -170l-76 -398h-30l-296 530h-3l-52 -266q-23 -115 -26 -168q-1 -34 15.5 -45.5t69.5 -15.5l-6 -27h-229l6 27q40 2 59 14.5t29 43.5q17 50 42 174l52 246q7 39 5.5 54.5t-11.5 32.5q-9 16 -26 22t-59 9l6 26h144
l295 -509h4l46 250q23 119 27 171q2 35 -14.5 46.5t-72.5 15.5l7 26h225z" />
    <glyph glyph-name="Xi" unicode="&#x39e;" horiz-adv-x="577" 
d="M587 649l-19 -140h-28q-3 50 -12.5 63.5t-49.5 13.5h-228q-39 0 -53.5 -13t-38.5 -64h-27l34 140h422zM497 432l-39 -189h-27q1 42 -8 52.5t-48 10.5h-131q-38 0 -50.5 -10.5t-28.5 -53.5h-28l39 190h28q-2 -41 5.5 -51t41.5 -10h137q40 0 53 10t28 51h28zM528 162
l-40 -162h-472l22 162l27 -1q10 -62 22 -77.5t61 -15.5h229q54 0 73 15.5t51 78.5h27z" />
    <glyph glyph-name="Omicron" unicode="&#x39f;" horiz-adv-x="708" 
d="M430 665q119 0 192.5 -80t73.5 -207q0 -162 -104 -277.5t-260 -115.5q-118 0 -192 78.5t-74 205.5q0 160 105.5 278t258.5 118zM422 630q-75 0 -136 -56.5t-92.5 -140.5t-31.5 -173q0 -106 45 -173t133 -67q79 0 140.5 58.5t91 141.5t29.5 168q0 108 -43.5 175t-135.5 67
z" />
    <glyph glyph-name="Pi" unicode="&#x3a0;" horiz-adv-x="716" 
d="M761 649l-6 -26q-56 -5 -71.5 -20.5t-27.5 -77.5l-77 -401q-12 -62 0 -77t74 -20l-5 -27h-255l5 27q56 4 72 19.5t28 77.5l88 459q4 20 -1.5 25.5t-24.5 5.5h-237q-22 0 -28.5 -6t-11.5 -27l-88 -457q-11 -62 0 -77.5t72 -19.5l-5 -27h-253l5 27q56 4 72.5 20t28.5 77
l78 401q11 62 -0.5 77.5t-75.5 20.5l6 26h638z" />
    <glyph glyph-name="Rho" unicode="&#x3a1;" horiz-adv-x="554" 
d="M132 649h228q210 0 210 -168q0 -67 -38 -117.5t-90 -73.5t-110 -27q-13 -1 -39 -1l-67 21l-30 -158q-12 -63 0.5 -77.5t81.5 -20.5l-6 -27h-265l6 27q58 6 73.5 20.5t28.5 77.5l80 405q12 59 1.5 72.5t-70.5 20.5zM280 563l-47 -248q36 -13 74 -13q29 0 57.5 10t55.5 30
t44 57t17 85q0 63 -34.5 98.5t-99.5 35.5q-25 0 -43 -8q-16 -7 -24 -47z" />
    <glyph glyph-name="Sigma" unicode="&#x3a3;" horiz-adv-x="578" 
d="M122 649h453q-9 -73 -14 -149l-27 -2q-10 68 -22 89q-16 28 -112 28h-179l170 -263l-283 -284h279q48 0 74.5 20.5t61.5 84.5l27 -9l-65 -164h-487l5 22l309 304l-195 301z" />
    <glyph glyph-name="Tau" unicode="&#x3a4;" horiz-adv-x="603" 
d="M636 674h21q-9 -53 -23 -175l-30 -3q0 64 -12 89q-7 18 -28.5 24.5t-78.5 6.5h-60l-93 -496q-11 -60 1.5 -74t80.5 -19l-6 -27h-272l6 27q63 4 79 18.5t27 74.5l95 496h-51q-62 0 -85 -6t-38 -24q-22 -26 -49 -90h-30q29 94 47 178h21q8 -16 17.5 -20.5t31.5 -4.5h376
q19 0 28.5 5t24.5 20z" />
    <glyph glyph-name="Upsilon" unicode="&#x3a5;" horiz-adv-x="646" 
d="M728 634l-9 -24q-16 2 -28 2q-37 0 -82 -27.5t-89 -82.5q-52 -67 -93 -159t-57 -178l-8 -46q-11 -59 1.5 -73.5t79.5 -18.5l-5 -27h-273l6 27q63 4 80.5 19t28.5 73l10 51q34 164 4 292q-33 146 -144 146q-36 0 -56 -7l-6 24q62 40 122 40q62 0 99.5 -47.5t50.5 -120.5
q18 -75 8 -198h4q38 116 91 197q44 76 99 122.5t106 46.5q36 0 60 -31z" />
    <glyph glyph-name="Phi" unicode="&#x3a6;" horiz-adv-x="725" 
d="M560 655l-6 -27q-46 -4 -59.5 -13t-18.5 -39q39 -4 77.5 -19t74.5 -41.5t58.5 -71.5t22.5 -102q0 -65 -28 -115t-75.5 -80t-104.5 -46t-121 -17q-7 -35 3.5 -44t61.5 -13l-5 -27h-224l6 27q47 4 60.5 13.5t20.5 46.5q-41 4 -79.5 18t-74 39.5t-57.5 69t-22 98.5
q0 83 47.5 144.5t120.5 91.5t161 32q5 27 -6 35.5t-57 12.5l6 27h218zM309 119l84 430q-110 -4 -173 -71.5t-64 -166.5q0 -80 44 -129t109 -63zM470 545l-84 -430q106 3 171 65t66 165q0 93 -45 140.5t-108 59.5z" />
    <glyph glyph-name="Chi" unicode="&#x3a7;" horiz-adv-x="642" 
d="M680 649l-6 -26q-53 -6 -73 -16t-59 -52l-162 -194l111 -246q25 -57 42.5 -70t75.5 -18l-6 -27h-252l6 27l31 4q27 4 32.5 13t-4.5 35l-93 214q-119 -151 -161 -214q-16 -23 -12 -33.5t35 -15.5l24 -3l-6 -27h-227l7 27q48 5 69.5 15.5t58.5 49.5q60 65 195 235l-96 217
q-22 49 -38.5 61t-67.5 18l7 26h231l-6 -26l-26 -5q-25 -5 -30 -11t2 -28q13 -34 82 -184q80 96 138 179q16 23 12.5 31.5t-28.5 12.5l-29 5l6 26h217z" />
    <glyph glyph-name="Psi" unicode="&#x3a8;" horiz-adv-x="694" 
d="M761 658l5 -25q-21 -11 -35 -27t-21 -32t-21 -55l-22 -61q-20 -55 -41 -84t-56 -53q-61 -43 -162 -46l-29 -153q-11 -59 0 -75t67 -20l-5 -27h-249l7 27q55 4 71.5 20t27.5 75l30 153q-97 3 -142 47q-45 45 -42 135l1 65q1 22 0.5 39.5t-3.5 31t-12 23.5t-25 18l12 24
q71 -10 97 -51q14 -24 13 -80l-2 -59q-3 -90 19 -123t90 -37l43 220q12 59 2.5 75t-62.5 20l6 26h231l-5 -26q-51 -4 -66 -20t-26 -75l-42 -220q77 4 111 37t67 130l20 58q18 50 41 75q40 40 107 50z" />
    <glyph glyph-name="uni03A9" unicode="&#x3a9;" horiz-adv-x="735" 
d="M666 136l26 -2l-43 -134h-250l-6 18l22 22l27 26l26 29l30 34l28 36l26 41l22 44l20 48l10 49l5 54q0 103 -45 165.5t-130 62.5q-110 0 -172 -95.5t-62 -222.5q0 -139 79 -294l-8 -17h-235l-3 134l27 1q9 -41 21.5 -54t38.5 -13h100q-31 41 -49.5 68.5t-41 84.5
t-22.5 109q0 140 97 237.5t239 97.5q115 0 186.5 -72.5t71.5 -196.5q0 -26 -4.5 -50.5t-14.5 -48t-20 -42.5t-27 -41l-29 -35l-32 -33l-30 -29l-32 -27l-25 -22h91q31 0 46 11t42 57z" />
    <glyph glyph-name="Iotadieresis" unicode="&#x3aa;" horiz-adv-x="335" 
d="M380 649l-6 -26q-58 -6 -72 -18.5t-25 -67.5l-81 -421q-11 -58 0 -71t73 -18l-6 -27h-256l7 27q58 4 73.5 18t26.5 71l81 421q10 54 -1.5 67t-74.5 19l7 26h254zM177 789q19 0 29 -12t10 -30q0 -23 -14.5 -39t-35.5 -16q-17 0 -28 11.5t-11 29.5q0 21 13.5 38.5
t36.5 17.5zM363 789q19 0 29 -12t10 -30q0 -23 -14.5 -39t-35.5 -16q-17 0 -28 11.5t-11 29.5q0 21 13.5 38.5t36.5 17.5z" />
    <glyph glyph-name="Upsilondieresis" unicode="&#x3ab;" horiz-adv-x="646" 
d="M728 634l-9 -24q-16 2 -28 2q-37 0 -82 -27.5t-89 -82.5q-52 -67 -93 -159t-57 -178l-8 -46q-11 -59 1.5 -73.5t79.5 -18.5l-5 -27h-273l6 27q63 4 80.5 19t28.5 73l10 51q34 164 4 292q-33 146 -144 146q-36 0 -56 -7l-6 24q62 40 122 40q62 0 99.5 -47.5t50.5 -120.5
q18 -75 8 -198h4q38 116 91 197q44 76 99 122.5t106 46.5q36 0 60 -31zM349 788q19 0 29 -12t10 -30q0 -23 -14.5 -39t-35.5 -16q-17 0 -28 11.5t-11 29.5q0 21 13.5 38.5t36.5 17.5zM535 788q18 0 28.5 -12.5t10.5 -29.5q0 -23 -14.5 -39t-35.5 -16q-17 0 -28.5 11.5
t-11.5 29.5q0 21 14 38.5t37 17.5z" />
    <glyph glyph-name="alphatonos" unicode="&#x3ac;" horiz-adv-x="535" 
d="M497 121l22 -18q-65 -115 -126 -115q-25 0 -39 35.5t-22 124.5h-2q-48 -76 -98 -118t-94 -42q-43 0 -69.5 44t-25.5 113q1 116 80 210t162 94q45 0 66.5 -35t34.5 -118h3q29 47 74 140l53 13l10 -8q-47 -82 -132 -202q13 -105 20.5 -140.5t18.5 -35.5q22 0 64 58z
M257 408q-48 0 -88.5 -75.5t-41.5 -169.5q-1 -52 13.5 -81.5t35.5 -29.5q28 0 67 36.5t82 111.5q-8 99 -22.5 153.5t-45.5 54.5zM381 660l-106 -171l-25 14q21 60 51 164q10 4 40 5.5t40 -0.5v-12z" />
    <glyph glyph-name="epsilontonos" unicode="&#x3ad;" horiz-adv-x="386" 
d="M152 237v2q-30 9 -46.5 32t-16.5 50q0 58 51.5 93t116.5 35q59 0 87.5 -22.5t29.5 -49.5q0 -16 -15 -29.5t-26 -13.5q-9 0 -12 13q-18 69 -79 69q-34 0 -56.5 -24t-22.5 -56q0 -34 23 -52.5t63 -18.5q12 0 25.5 0.5t16.5 0.5l3 -7l-29 -41q-24 2 -47 2q-43 0 -72.5 -23.5
t-29.5 -64.5q0 -37 26 -61.5t67 -24.5q72 0 137 63l16 -22q-73 -99 -184 -99q-66 0 -107 34.5t-41 90.5q0 46 35 77.5t87 46.5zM349 660l-107 -171l-25 14q21 60 51 164q10 4 40.5 5.5t39.5 -0.5z" />
    <glyph glyph-name="etatonos" unicode="&#x3ae;" horiz-adv-x="509" 
d="M185 246h2q88 119 191 181q35 22 66 22q48 0 15 -139q-43 -177 -85 -394q-26 -130 -18 -159l-7 -14q-20 1 -42 20.5t-27 38.5q-3 22 51 260l57 247q5 24 7.5 39t1.5 23t-3.5 11t-8.5 3q-28 0 -95.5 -66.5t-116.5 -142.5q-22 -81 -39 -168q-37 -7 -72 -20l-6 8
q47 190 80 339q9 41 -1 41q-7 0 -27 -13.5t-38 -31.5l-15 22q39 43 80 69.5t63 26.5q35 0 8 -111zM420 660l-107 -171l-25 14q30 85 51 164q10 4 40.5 5.5t39.5 -0.5z" />
    <glyph glyph-name="iotatonos" unicode="&#x3af;" horiz-adv-x="249" 
d="M201 110l12 -22q-26 -33 -71 -66.5t-71 -33.5q-41 0 -17 102l74 338l76 21l3 -8q-43 -164 -80 -345q-7 -34 3 -34q18 0 71 48zM277 660l-106 -171l-25 14q32 97 50 164q10 4 40.5 5.5t39.5 -0.5z" />
    <glyph glyph-name="upsilondieresistonos" unicode="&#x3b0;" horiz-adv-x="484" 
d="M69 326l-18 23q31 46 69.5 73t70.5 27q53 0 24 -114q-36 -135 -42 -163q-29 -128 54 -128q64 0 112.5 77.5t49.5 201.5q1 71 -20 110v5q13 11 31 11q24 0 39.5 -31.5t14.5 -81.5q-1 -126 -85 -237t-179 -111q-53 0 -84 43.5t-11 124.5l47 184q13 46 0 46q-22 0 -73 -60z
M402 513q-17 0 -28 11.5t-11 30.5q0 21 13.5 37.5t36.5 16.5q18 0 28 -12t10 -31q0 -23 -14 -38t-35 -15zM379 661l-102 -172l-28 9l29 93l21 69q8 4 37.5 7.5t39.5 2.5zM188 513q-18 0 -29 11.5t-11 30.5q0 21 13.5 37.5t36.5 16.5q18 0 28 -12t10 -31q0 -23 -14 -38
t-34 -15z" />
    <glyph glyph-name="alpha" unicode="&#x3b1;" horiz-adv-x="535" 
d="M497 121l22 -18q-65 -115 -126 -115q-25 0 -39 35.5t-22 124.5h-2q-48 -76 -98 -118t-94 -42q-43 0 -69.5 44t-25.5 113q1 116 80 210t162 94q45 0 66.5 -35t34.5 -118h3q29 47 74 140l53 13l10 -8q-47 -82 -132 -202q13 -105 20.5 -140.5t18.5 -35.5q22 0 64 58z
M257 408q-48 0 -88.5 -75.5t-41.5 -169.5q-1 -52 13.5 -81.5t35.5 -29.5q28 0 67 36.5t82 111.5q-8 99 -22.5 153.5t-45.5 54.5z" />
    <glyph glyph-name="beta" unicode="&#x3b2;" horiz-adv-x="511" 
d="M-11 -258l-4 21q16 15 50 194l73 394q22 119 50.5 184t75.5 111q66 66 140 66q51 0 83 -33t33 -89q0 -33 -12.5 -62.5t-38 -55.5t-44.5 -41t-51 -37q132 -53 131 -170q-1 -58 -39.5 -109.5t-97.5 -86.5q-72 -43 -125 -43q-27 0 -47 18.5t-27 42.5l10 18q46 -24 96 -24
q75 0 112.5 44t37.5 113q-1 64 -42 104.5t-109 49.5l22 45q39 5 58 18q90 62 92 162q0 42 -20.5 67.5t-55.5 25.5q-34 0 -59 -22t-44.5 -71.5t-32.5 -104t-29 -143.5q-39 -216 -64 -371q-28 -169 -35 -182q-29 -30 -87 -33z" />
    <glyph glyph-name="gamma" unicode="&#x3b3;" horiz-adv-x="474" 
d="M252 57h3q148 191 148 291q0 32 -14 51q-3 6 -3 15q0 14 12 24.5t28 10.5q19 0 31.5 -20.5t11.5 -53.5q0 -41 -30.5 -100.5t-56.5 -95.5l-75 -100l-71 -99q-26 -125 -52 -198q-13 -11 -43.5 -24t-51.5 -15l-12 15q26 70 111 226q12 60 4.5 167t-33.5 184q-13 41 -27 41
q-18 0 -63 -63l-24 21q71 115 127 115q47 0 69 -117q11 -59 14 -143.5t-3 -131.5z" />
    <glyph glyph-name="delta" unicode="&#x3b4;" horiz-adv-x="467" 
d="M486 520l-12 -15q-47 74 -92.5 114t-101.5 40q-40 0 -41 -31q0 -26 98 -158q51 -67 73.5 -116t22.5 -104q0 -63 -28.5 -120t-80.5 -96q-60 -46 -128 -46q-69 0 -110 50t-41 129q0 75 38 137t97 99q36 23 80 43q-67 101 -67 152q0 49 37.5 81.5t83.5 32.5q38 0 70 -19.5
t52.5 -49.5t33 -62t16.5 -61zM221 28q43 0 74.5 33.5t44.5 79t13 93.5q0 85 -75 187q-38 -15 -65 -43q-82 -89 -82 -209q0 -67 27 -104t63 -37z" />
    <glyph glyph-name="epsilon" unicode="&#x3b5;" horiz-adv-x="386" 
d="M152 237v2q-30 9 -46.5 32t-16.5 50q0 58 51.5 93t116.5 35q59 0 87.5 -22.5t29.5 -49.5q0 -16 -15 -29.5t-26 -13.5q-9 0 -12 13q-18 69 -79 69q-34 0 -56.5 -24t-22.5 -56q0 -34 23 -52.5t63 -18.5q12 0 25.5 0.5t16.5 0.5l3 -7l-29 -41q-24 2 -47 2q-43 0 -72.5 -23.5
t-29.5 -64.5q0 -37 26 -61.5t67 -24.5q72 0 137 63l16 -22q-73 -99 -184 -99q-66 0 -107 34.5t-41 90.5q0 46 35 77.5t87 46.5z" />
    <glyph glyph-name="zeta" unicode="&#x3b6;" horiz-adv-x="382" 
d="M244 745l17 -13q-10 -15 -13 -32q-3 -21 14.5 -39.5t51.5 -22.5q78 64 121 64q16 0 16 -13q-1 -38 -39 -61t-85 -27q-81 -69 -140 -181.5t-58 -214.5q0 -51 19 -78.5t57 -41.5q16 -6 50 -16q75 -23 75 -87q1 -73 -102 -156l-23 21q54 57 53 102q0 40 -55 55
q-40 11 -56 18q-49 18 -74 53.5t-25 99.5q0 117 68.5 230.5t165.5 197.5q-47 4 -78 25t-29 49q1 19 20.5 38t48.5 30z" />
    <glyph glyph-name="eta" unicode="&#x3b7;" horiz-adv-x="509" 
d="M185 246h2q88 119 191 181q35 22 66 22q48 0 15 -139q-43 -177 -85 -394q-26 -130 -18 -159l-7 -14q-20 1 -42 20.5t-27 38.5q-3 22 51 260l57 247q5 24 7.5 39t1.5 23t-3.5 11t-8.5 3q-28 0 -95.5 -66.5t-116.5 -142.5q-22 -81 -39 -168q-37 -7 -72 -20l-6 8
q47 190 80 339q9 41 -1 41q-7 0 -27 -13.5t-38 -31.5l-15 22q39 43 80 69.5t63 26.5q35 0 8 -111z" />
    <glyph glyph-name="theta" unicode="&#x3b8;" horiz-adv-x="477" 
d="M349 712q51 0 82.5 -31.5t42.5 -76t10 -103.5q0 -82 -19.5 -170.5t-54.5 -165.5t-91 -127t-120 -50q-53 0 -86 34t-44 79.5t-11 104.5q0 109 34.5 223.5t103.5 198.5t153 84zM160 388h234q12 100 12 138q0 152 -72 152q-57 0 -103.5 -84t-70.5 -206zM387 341h-235
q-14 -89 -14 -154q0 -32 3.5 -59t11.5 -51.5t23 -39t36 -14.5q40 0 76 47.5t60 117t39 153.5z" />
    <glyph glyph-name="iota" unicode="&#x3b9;" horiz-adv-x="249" 
d="M201 110l12 -22q-26 -33 -71 -66.5t-71 -33.5q-41 0 -17 102l74 338l76 21l3 -8q-43 -164 -80 -345q-7 -34 3 -34q18 0 71 48z" />
    <glyph glyph-name="kappa" unicode="&#x3ba;" horiz-adv-x="487" 
d="M68 331l-12 24q41 40 83.5 67t63.5 27q30 0 11 -83l-36 -157l136 145q47 49 76.5 72t53.5 23q19 0 31.5 -12t12.5 -28q0 -21 -21 -39q-8 -6 -17 0q-15 11 -31 11q-27 0 -69.5 -37.5t-67.5 -68.5q10 -40 71 -176q13 -28 21 -36.5t17 -8.5q8 0 26.5 17t37.5 42l18 -23
q-65 -102 -123 -102q-34 0 -63 70q-22 54 -61 158q-43 -43 -57 -59q-4 -12 -34 -154q-45 -8 -74 -15l-4 7q44 174 80 348q7 30 -1 31q-17 0 -68 -43z" />
    <glyph glyph-name="lambda" unicode="&#x3bb;" horiz-adv-x="487" 
d="M441 114l20 -21q-68 -105 -127 -105q-45 0 -56 109q-22 197 -26 261q-37 -86 -95.5 -198t-87.5 -153q-22 -7 -70 -19l-8 18q162 202 254 419q-5 72 -13 126q-10 62 -26 84.5t-42 23.5q-17 0 -43 -10l-7 24q19 16 46.5 27.5t47.5 11.5q29 0 47.5 -17t33.5 -69t23 -144
q26 -265 41 -371q7 -55 22 -55q23 0 66 58z" />
    <glyph glyph-name="uni03BC" unicode="&#x3bc;" horiz-adv-x="511" 
d="M466 113l14 -23q-35 -42 -78 -72t-66 -30q-40 0 -16 106q6 25 19 85h-3q-74 -107 -138 -159q-39 -32 -70 -32q-30 0 -41 44h-2q-23 -76 -19 -147q1 -37 10.5 -66t20.5 -39l1 -7q-19 -31 -58 -31q-17 0 -28 18.5t-10 53.5q2 53 37 199l92 415l72 21l7 -5l-71 -307
q-8 -40 -1.5 -61.5t23.5 -21.5q35 0 96.5 71.5t96.5 136.5q20 84 35 161l70 26h11q-45 -178 -78 -349q-8 -39 3 -39q7 0 29 16t42 36z" />
    <glyph glyph-name="nu" unicode="&#x3bd;" horiz-adv-x="449" 
d="M236 89h4q145 175 144 251q0 38 -17 55q-5 9 -2 19q2 13 13 24t26 11q21 0 34.5 -20t12.5 -49q0 -47 -37 -108t-108 -149q-96 -121 -108 -135h-27q-6 213 -27 338q-8 52 -19 52q-16 0 -58 -57l-20 19q71 109 119 109q36 0 49 -96q17 -109 21 -264z" />
    <glyph glyph-name="xi" unicode="&#x3be;" horiz-adv-x="405" 
d="M255 -176l-24 18q52 66 51 103q0 20 -14.5 33t-51.5 22l-56 17q-119 35 -119 142q-1 120 150 206q-25 11 -42 36t-17 56q0 92 113 162q-37 3 -64.5 21t-26.5 42q1 19 19.5 35.5t44.5 25.5l16 -9q-9 -14 -10 -34q-2 -18 14.5 -32.5t44.5 -17.5q83 51 141 51
q12 0 15.5 -3.5t2.5 -12.5q-3 -35 -47 -55q-45 -16 -105 -15q-35 -20 -60.5 -54.5t-25.5 -73.5q0 -32 15 -55t42 -30q66 15 89 15q11 0 15.5 -3.5t2.5 -11.5q-4 -18 -23.5 -38.5t-30.5 -20.5q-48 0 -85 9q-44 -21 -77 -68t-33 -96q0 -75 81 -101q10 -4 61 -18
q49 -14 71.5 -36t23.5 -55q0 -72 -101 -154z" />
    <glyph glyph-name="omicron" unicode="&#x3bf;" horiz-adv-x="470" 
d="M178 -12q-67 0 -99.5 44.5t-32.5 111.5q0 93 43 165.5t109 107.5q61 32 108 32q63 0 98 -41t35 -115q0 -67 -28 -133.5t-79 -108.5q-75 -63 -154 -63zM214 28q17 0 32 6q43 18 76 91.5t33 165.5q0 59 -22.5 89.5t-58.5 30.5q-18 0 -38 -9q-37 -16 -71.5 -82.5
t-34.5 -170.5q0 -56 22.5 -88.5t61.5 -32.5z" />
    <glyph glyph-name="pi" unicode="&#x3c0;" horiz-adv-x="534" 
d="M535 462l26 -10q-17 -52 -36 -76q-12 -4 -72 -4q-24 -97 -50 -241q-15 -73 6 -73q24 0 72 42l13 -25q-70 -87 -136 -87q-58 0 -33 117q12 57 62 269q-88 3 -142 3q-21 -104 -53.5 -211.5t-64.5 -154.5q-38 -23 -76 -23l-6 16q44 40 90.5 158.5t62.5 215.5q-77 1 -132 -58
l-18 23q14 19 26 31.5t34.5 29t54.5 25.5t72 9q27 0 113.5 -2.5t131.5 -2.5q22 0 32 5t23 24z" />
    <glyph glyph-name="rho" unicode="&#x3c1;" horiz-adv-x="477" 
d="M-12 -257l-5 17q11 15 27 88t56 298q18 104 45 160t84 98q61 45 124 45q60 0 95 -46t35 -117q0 -138 -138 -243q-72 -55 -127 -55q-36 0 -65 41l-9 -55l-9 -55q-21 -130 -32 -145q-14 -14 -40 -22.5t-41 -8.5zM206 40q76 0 120 66t44 156q0 62 -24.5 101t-71.5 39
q-49 0 -77.5 -49.5t-45.5 -139.5q-23 -132 -25 -142q36 -31 80 -31z" />
    <glyph glyph-name="uni03C2" unicode="&#x3c2;" horiz-adv-x="394" 
d="M245 -151l-20 15q42 47 42 85q-1 20 -15 32.5t-49 22.5q-32 8 -57 17q-99 33 -99 152q0 68 34 128t91 99q74 49 134 49q36 0 59 -14.5t23 -37.5q0 -14 -9.5 -27t-22.5 -17q-11 -4 -21 8q-31 39 -77 39q-59 0 -98 -56.5t-39 -136.5q0 -95 71 -119q27 -9 51 -16
q49 -15 71 -33.5t22 -53.5q1 -75 -91 -136z" />
    <glyph glyph-name="sigma" unicode="&#x3c3;" horiz-adv-x="476" 
d="M322 448q30 0 74.5 -4t60.5 -4q32 0 54 22l18 -11q-26 -71 -67 -71q-22 0 -96 9l-2 -2q33 -30 44.5 -62.5t11.5 -79.5q0 -100 -70.5 -178.5t-165.5 -78.5q-64 0 -102 44t-38 123q0 118 80 206t198 87zM284 397q-70 0 -114.5 -78.5t-44.5 -170.5q0 -57 21 -90.5t58 -33.5
q36 0 64.5 26.5t45 67t25 81.5t8.5 76q0 60 -15 90q-15 32 -48 32z" />
    <glyph glyph-name="tau" unicode="&#x3c4;" horiz-adv-x="434" 
d="M443 462l27 -4q-21 -58 -36 -80q-16 -5 -78 -3q-40 2 -56 2q-43 -186 -56 -251q-13 -69 10 -69t68 43l14 -25q-70 -87 -135 -87q-60 0 -35 115q17 75 68 277q-57 4 -95.5 -9t-74.5 -50l-19 20q19 26 35.5 43.5t56 35.5t88.5 18q24 0 77.5 -2t87.5 -3q20 0 30.5 5t22.5 24
z" />
    <glyph glyph-name="upsilon" unicode="&#x3c5;" horiz-adv-x="484" 
d="M69 326l-18 23q31 46 69.5 73t70.5 27q53 0 24 -114q-36 -135 -42 -163q-29 -128 54 -128q64 0 112.5 77.5t49.5 201.5q1 71 -20 110v5q13 11 31 11q24 0 39.5 -31.5t14.5 -81.5q-1 -126 -85 -237t-179 -111q-53 0 -84 43.5t-11 124.5l47 184q13 46 0 46q-22 0 -73 -60z
" />
    <glyph glyph-name="phi" unicode="&#x3c6;" horiz-adv-x="574" 
d="M277 459l11 -29q-155 -77 -155 -235q0 -64 26 -104t68 -53q29 155 55 254q20 75 59.5 116t86.5 41q46 0 80.5 -44t34.5 -127q0 -110 -76 -190.5t-177 -93.5q-6 -36 -20 -114t-18 -102q-20 -31 -78 -35l-8 8q15 49 53 239q-82 9 -126 60.5t-44 130.5q-1 99 62 168.5
t166 109.5zM405 408q-19 0 -32 -19t-22 -68q-48 -252 -54 -287q76 4 127 77.5t51 169.5q0 61 -23.5 94t-46.5 33z" />
    <glyph glyph-name="chi" unicode="&#x3c7;" horiz-adv-x="444" 
d="M470 449l7 -12q-30 -34 -105 -138t-113 -163q19 -121 47 -265q9 -58 22 -58q25 0 70 57l21 -22q-70 -105 -126 -105q-41 0 -58 96q-19 102 -37 221q-136 -206 -211 -334h-9q-13 12 -12.5 41t20.5 59l203 292q-22 146 -36 211q-9 49 -22 49q-18 0 -61 -58l-20 21
q70 108 120 108q32 0 49 -79q12 -62 30 -179l150 232z" />
    <glyph glyph-name="psi" unicode="&#x3c8;" horiz-adv-x="594" 
d="M618 449l10 -27q-26 -18 -40 -38.5t-28 -57.5l-26 -68l-39 -101q-23 -54 -49.5 -85t-60.5 -53q-34 -21 -74 -29l-45 -220l-28 -27q-22 10 -14 68l33 176q-71 6 -108 48.5t-31 136.5q1 23 6 76l7 74q4 59 -23 59q-18 0 -47 -23l-8 26q56 65 108 65q60 0 48 -115
q-2 -13 -6 -55t-8 -72q-17 -152 71 -171l85 456l57 23l9 -4l-98 -481q83 11 120 120q30 87 49 159q19 67 36 84q36 38 94 56z" />
    <glyph glyph-name="omega" unicode="&#x3c9;" horiz-adv-x="638" 
d="M485 427l1 8q14 14 41 14q28 0 52.5 -43.5t24.5 -113.5q0 -143 -110 -246q-65 -58 -119 -58q-35 0 -57.5 28t-27.5 71q-28 -42 -66.5 -70.5t-70.5 -28.5q-44 0 -74 42.5t-30 117.5q0 98 53.5 180t142.5 128l16 -23q-59 -44 -94 -116.5t-35 -155.5q0 -52 17.5 -81
t42.5 -29q32 0 60.5 38t44.5 108q11 46 21 126l74 16l6 -5q-11 -34 -24 -94.5t-15 -96.5q-1 -47 14 -72t41 -25q58 0 91.5 68.5t34.5 159.5q0 105 -55 153z" />
    <glyph glyph-name="iotadieresis" unicode="&#x3ca;" horiz-adv-x="249" 
d="M201 110l12 -22q-26 -33 -71 -66.5t-71 -33.5q-41 0 -17 102l74 338l76 21l3 -8q-43 -164 -80 -345q-7 -34 3 -34q18 0 71 48zM127 631q19 0 29 -12t10 -30q0 -23 -14 -39t-36 -16q-17 0 -28 11.5t-11 29.5q0 20 13.5 38t36.5 18zM303 631q19 0 29 -12t10 -30
q0 -23 -14 -39t-36 -16q-17 0 -28 11t-11 30q0 20 13.5 38t36.5 18z" />
    <glyph glyph-name="upsilondieresis" unicode="&#x3cb;" horiz-adv-x="484" 
d="M69 326l-18 23q31 46 69.5 73t70.5 27q53 0 24 -114q-36 -135 -42 -163q-29 -128 54 -128q64 0 112.5 77.5t49.5 201.5q1 71 -20 110v5q13 11 31 11q24 0 39.5 -31.5t14.5 -81.5q-1 -126 -85 -237t-179 -111q-53 0 -84 43.5t-11 124.5l47 184q13 46 0 46q-22 0 -73 -60z
M231 631q18 0 28.5 -12.5t10.5 -29.5q0 -23 -14 -39t-36 -16q-18 0 -29 11t-11 30q0 20 14 38t37 18zM407 631q18 0 28 -12t10 -30q0 -24 -14 -39.5t-36 -15.5q-17 0 -28 11.5t-11 29.5q0 20 14 38t37 18z" />
    <glyph glyph-name="omicrontonos" unicode="&#x3cc;" horiz-adv-x="470" 
d="M178 -12q-67 0 -99.5 44.5t-32.5 111.5q0 93 43 165.5t109 107.5q61 32 108 32q63 0 98 -41t35 -115q0 -67 -28 -133.5t-79 -108.5q-75 -63 -154 -63zM214 28q17 0 32 6q43 18 76 91.5t33 165.5q0 59 -22.5 89.5t-58.5 30.5q-18 0 -38 -9q-37 -16 -71.5 -82.5
t-34.5 -170.5q0 -56 22.5 -88.5t61.5 -32.5zM386 660l-106 -171l-25 14q32 97 50 164q10 4 40.5 5.5t39.5 -0.5z" />
    <glyph glyph-name="upsilontonos" unicode="&#x3cd;" horiz-adv-x="484" 
d="M69 326l-18 23q31 46 69.5 73t70.5 27q53 0 24 -114q-36 -135 -42 -163q-29 -128 54 -128q64 0 112.5 77.5t49.5 201.5q1 71 -20 110v5q13 11 31 11q24 0 39.5 -31.5t14.5 -81.5q-1 -126 -85 -237t-179 -111q-53 0 -84 43.5t-11 124.5l47 184q13 46 0 46q-22 0 -73 -60z
M411 660l-106 -171l-25 14q30 91 51 164q10 4 40 5.5t40 -0.5v-12z" />
    <glyph glyph-name="omegatonos" unicode="&#x3ce;" horiz-adv-x="638" 
d="M485 427l1 8q14 14 41 14q28 0 52.5 -43.5t24.5 -113.5q0 -143 -110 -246q-65 -58 -119 -58q-35 0 -57.5 28t-27.5 71q-28 -42 -66.5 -70.5t-70.5 -28.5q-44 0 -74 42.5t-30 117.5q0 98 53.5 180t142.5 128l16 -23q-59 -44 -94 -116.5t-35 -155.5q0 -52 17.5 -81
t42.5 -29q32 0 60.5 38t44.5 108q11 46 21 126l74 16l6 -5q-11 -34 -24 -94.5t-15 -96.5q-1 -47 14 -72t41 -25q58 0 91.5 68.5t34.5 159.5q0 105 -55 153zM478 660l-107 -171l-25 14q21 60 51 164q10 4 40 5.5t40 -0.5z" />
    <glyph glyph-name="uni03D0" unicode="&#x3d0;" horiz-adv-x="474" 
d="M492 611q1 -107 -165 -189q119 -29 119 -169q0 -101 -73 -183t-166 -82q-76 0 -115 58t-39 159q0 119 52 240t138 197q78 69 154 69q43 0 69 -25.5t26 -74.5zM420 595q0 36 -15.5 55t-43.5 19q-37 0 -71.5 -30.5t-59.5 -78t-42 -93.5t-27 -90q21 11 66.5 30.5t58.5 25.5
q52 25 93 68.5t41 93.5zM363 241q0 68 -26 104t-69 36q-57 0 -116 -44q-17 -68 -17 -140q0 -74 23 -123.5t68 -49.5q59 0 97.5 70.5t39.5 146.5z" />
    <glyph glyph-name="uni03D1" unicode="&#x3d1;" horiz-adv-x="488" 
d="M38 229l-7 24q45 40 89 40q66 0 58 -135q-8 -117 67 -117q62 0 103.5 91t56.5 238q-62 -39 -114 -39q-84 0 -131 49t-47 124q0 86 60 147t139 61q71 0 119.5 -66t49.5 -206q1 -113 -36.5 -220.5t-113.5 -176.5q-60 -55 -123 -55q-50 0 -81 36t-23 123q7 89 -30 89
q-15 0 -36 -7zM280 672q-49 0 -73.5 -37.5t-24.5 -94.5q0 -68 40 -113.5t108 -45.5q41 0 76 21q1 23 1 37q0 111 -38 172t-89 61z" />
    <glyph glyph-name="uni03D5" unicode="&#x3d5;" horiz-adv-x="558" 
d="M414 665l-34 -151q-10 -43 -1 -48q149 -61 149 -217q0 -108 -76.5 -180.5t-181.5 -77.5q-9 -35 -54 -245l-6 -3q-16 7 -24 33.5t1 88.5q5 23 14 68.5t12 57.5q-79 15 -123 71t-44 135q0 95 60.5 161.5t156.5 99.5l13 -29q-72 -33 -109 -85t-37 -136q0 -60 27 -102t68 -57
q19 102 125 587l50 38zM460 239q0 65 -32 110.5t-69 60.5q-43 -184 -80 -372q85 -3 133 54t48 147z" />
    <glyph glyph-name="uni03D6" unicode="&#x3d6;" horiz-adv-x="639" 
d="M206 491l-8 27q86 55 190 55q113 0 173 -69t61 -177q0 -86 -33 -159.5t-83 -119.5q-66 -60 -124 -60q-36 0 -61.5 28.5t-29.5 71.5q-27 -41 -68.5 -70.5t-73.5 -29.5q-44 0 -75 42.5t-31 117.5q-1 99 51.5 180.5t141.5 127.5l17 -24q-59 -44 -93.5 -116.5t-33.5 -155.5
q0 -51 18.5 -78.5t44.5 -27.5q34 0 63.5 38t45.5 105q14 61 22 131l73 11l6 -4q-35 -119 -39 -192q-1 -46 15.5 -69t44.5 -24q56 -1 95.5 65t39.5 163q1 120 -56 181.5t-151 61.5q-78 0 -142 -30z" />
    <glyph glyph-name="uni03D9" unicode="&#x3d9;" horiz-adv-x="462" 
d="M116 -194l-9 6q5 18 10 39l11 46l8 38l12 56q-53 8 -78 50.5t-25 102.5q0 93 42.5 166t107.5 107q59 32 107 32q62 0 95.5 -40.5t33.5 -115.5q0 -68 -28 -134.5t-79 -107.5q-50 -43 -100 -55l-13 -61q-15 -61 -22 -74q-19 -37 -73 -55zM271 410q-19 0 -37 -8
q-37 -18 -71.5 -83t-34.5 -169q0 -57 21 -89t60 -32q17 0 33 6q42 18 74.5 91t31.5 165q-1 59 -21.5 89t-55.5 30z" />
    <glyph glyph-name="uni03DB" unicode="&#x3db;" 
d="M394 458l23 -9q-15 -56 -42 -67q-19 -12 -46 -3q-34 12 -75 12q-63 0 -100.5 -54t-36.5 -128q0 -94 81 -121q30 -10 42 -13q52 -13 78 -35t26 -62q1 -52 -45 -95.5t-86 -43.5q-13 0 -23 9t-10 21q2 20 19 37q7 8 15 3q17 -5 30 -5q21 0 35 12.5t14 29.5q-1 36 -86 57
q-26 7 -58 17q-105 38 -107 154q0 69 34.5 128t91.5 98q74 49 129 49q30 0 65 -7q18 -4 32 16z" />
    <glyph glyph-name="uni03DD" unicode="&#x3dd;" horiz-adv-x="423" 
d="M451 445l-46 -65q-60 12 -173 12h-34l-55 -263q138 3 199 10l3 -12l-41 -47q-32 7 -169 10l-23 -107q-24 -111 -57 -164t-92 -77l-6 8q42 55 82 244l91 438h162q116 0 150 23z" />
    <glyph glyph-name="uni03E1" unicode="&#x3e1;" horiz-adv-x="727" 
d="M131 645l39 13q27 9 57 9q90 0 165.5 -26.5t126 -70t85.5 -101.5t50.5 -120t15.5 -126q0 -221 -141 -388l-22 18q91 162 91 342q0 44 -6 77q-149 -82 -245 -183q-47 -49 -41 -90l-1 -9q-8 -4 -18 -4q-19 0 -32.5 18t-5.5 52.5t47 72.5t95 77t93 60.5t100 54.5
q-14 57 -37 99.5t-40 60.5q-73 -52 -185 -110t-152 -70q-27 -8 -51.5 0.5t-33.5 22.5l3 9q233 70 390 179q-49 52 -126.5 83t-163.5 31q-16 0 -52 -4z" />
    <glyph glyph-name="uni03F0" unicode="&#x3f0;" horiz-adv-x="528" 
d="M488 112l18 -22q-32 -49 -67 -75.5t-65 -26.5q-31 0 -46 33t-5 85q15 79 54 165l-3 4q-261 -244 -310 -287h-14q-21 9 -30.5 30.5t-2.5 37.5q38 19 75 48q46 57 65 152q10 53 3.5 89.5t-27.5 36.5q-19 0 -65 -44l-18 21q69 90 127 90q33 0 45.5 -31t4.5 -79
q-16 -89 -69 -184l4 -3q198 186 239 228q56 65 69 70q32 3 44 -32q4 -18 -1 -29q-81 -69 -82 -70q-25 -43 -38 -110q-13 -70 -5.5 -108.5t29.5 -38.5q29 0 71 50z" />
    <glyph glyph-name="uni0401" unicode="&#x401;" horiz-adv-x="559" 
d="M128 649h435q-3 -18 -19 -153l-29 -2q-2 65 -13 88q-9 19 -27.5 26.5t-69.5 7.5h-78q-25 0 -31.5 -6.5t-12.5 -34.5l-41 -217h96q62 0 79 11.5t35 61.5h29l-38 -189h-28q2 54 -10 65.5t-75 11.5h-96l-33 -175q-15 -80 5 -96q18 -14 101 -14q55 0 83 7t48 27q29 28 67 96
l28 -10l-17 -42l-26 -66l-19 -46h-468l6 27q61 5 77 19t28 74l79 410q12 60 1.5 73.5t-72.5 19.5zM288 789q19 0 29 -12t10 -30q0 -23 -14.5 -39t-35.5 -16q-17 0 -28 11.5t-11 29.5q0 21 14 38.5t36 17.5zM474 789q19 0 29 -12t10 -30q0 -23 -14.5 -39t-35.5 -16
q-17 0 -28 11.5t-11 29.5q0 21 13.5 38.5t36.5 17.5z" />
    <glyph glyph-name="uni0402" unicode="&#x402;" horiz-adv-x="708" 
d="M651 674h22q-15 -71 -25 -178l-29 -3q-3 64 -15 92q-8 19 -28.5 25t-73.5 6h-82l-50 -259q77 27 117 27q83 0 130.5 -53.5t47.5 -141.5q0 -72 -30 -135.5t-78.5 -106.5t-99.5 -71.5t-102 -43.5l-11 28q95 42 162.5 126.5t67.5 200.5q0 72 -33.5 112.5t-91.5 40.5
q-42 0 -85 -17l-37 -199q-12 -63 1 -78t86 -19l-6 -27h-286l5 27q69 4 86.5 19t30.5 78l95 492h-55q-55 0 -79 -8t-41 -29q-19 -23 -49 -85l-28 2q21 69 47 178h19q6 -16 16.5 -20.5t33.5 -4.5h392q34 0 56 25z" />
    <glyph glyph-name="uni0403" unicode="&#x403;" horiz-adv-x="502" 
d="M135 649h419l-17 -149l-28 -3q-5 73 -18 93q-16 26 -86 26h-72q-29 0 -36 -5.5t-12 -31.5l-88 -454q-12 -66 -0.5 -79.5t77.5 -18.5l-6 -27h-254l5 27q54 5 68.5 19t27.5 79l78 400q7 36 8.5 52t-7 27t-21.5 13t-45 5zM517 755l-2 -8l-188 -63l-13 24l161 102
q9 -2 24.5 -22.5t17.5 -32.5z" />
    <glyph glyph-name="uni0404" unicode="&#x404;" horiz-adv-x="630" 
d="M503 313l-337 7q-2 -13 -2 -44q0 -112 47.5 -184t144.5 -73q117 -1 186 103q21 32 37 32q15 0 20 -16t-4 -36q-18 -40 -76 -75q-70 -42 -171 -42q-127 0 -205 77t-77 211q0 118 56 209t145.5 137t195.5 46q25 0 50 -2.5t46 -7.5t36 -9t30 -8.5t18 -5.5l-3 -75l-4 -75
l-28 -3q-5 84 -42.5 118t-115.5 34q-111 0 -183 -72.5t-97 -199.5l347 7z" />
    <glyph glyph-name="uni0405" unicode="&#x405;" horiz-adv-x="468" 
d="M38 195l27 3q5 -32 15 -60.5t28.5 -57t49 -45t69.5 -16.5q54 0 87 35t33 94q0 40 -22.5 71.5t-70.5 69.5l-28 22q-32 26 -51.5 44.5t-40 55.5t-20.5 75q0 78 56.5 128.5t146.5 50.5q47 0 95 -17l44 -16q-2 -19 -2.5 -42.5t-0.5 -53.5v-44l-29 -3q-15 143 -120 143
q-51 0 -81.5 -34.5t-30.5 -82.5q0 -39 23 -68.5t70 -65.5l30 -22q57 -43 86.5 -85.5t29.5 -97.5q0 -85 -64 -138t-154 -53q-55 0 -104 20t-68 42q0 10 -1 60t-2 88z" />
    <glyph glyph-name="uni0406" unicode="&#x406;" horiz-adv-x="335" 
d="M380 649l-6 -26q-58 -6 -72 -18.5t-25 -67.5l-81 -421q-11 -58 0 -71t73 -18l-6 -27h-256l7 27q58 4 73.5 18t26.5 71l81 421q10 54 -1.5 67t-74.5 19l7 26h254z" />
    <glyph glyph-name="uni0407" unicode="&#x407;" horiz-adv-x="335" 
d="M380 649l-6 -26q-58 -6 -72 -18.5t-25 -67.5l-81 -421q-11 -58 0 -71t73 -18l-6 -27h-256l7 27q58 4 73.5 18t26.5 71l81 421q10 54 -1.5 67t-74.5 19l7 26h254zM174 789q18 0 28 -12t10 -30q0 -23 -14 -39t-36 -16q-17 0 -28 11.5t-11 29.5q0 21 14 38.5t37 17.5z
M360 789q18 0 28 -12t10 -30q0 -23 -14 -39t-36 -16q-17 0 -28 11.5t-11 29.5q0 21 14 38.5t37 17.5z" />
    <glyph glyph-name="uni0408" unicode="&#x408;" horiz-adv-x="321" 
d="M375 649l-7 -26q-55 -7 -68 -20t-24 -72l-75 -401q-18 -97 -50.5 -154.5t-89.5 -90.5q-47 -27 -78 -29l-10 29q80 24 111 108q19 52 40 157l71 381q6 33 7 47.5t-9 25t-23 13t-48 6.5l6 26h247z" />
    <glyph glyph-name="uni0409" unicode="&#x409;" horiz-adv-x="888" 
d="M689 649l-5 -27q-64 -4 -79 -18.5t-27 -78.5l-27 -141q47 5 88 5q104 0 158 -45t54 -124q-1 -69 -35.5 -117t-92.5 -73q-68 -30 -177 -30h-228l7 27q54 5 69.5 20t27.5 80l87 446q5 27 0.5 34t-27.5 7h-124q-24 0 -29.5 -4.5t-10.5 -24.5q-77 -401 -205 -549
q-44 -51 -77 -51q-35 0 -55 11l2 16q62 32 118 104q42 52 90.5 175t75.5 262q8 42 -6 53.5t-80 15.5l6 27h502zM545 350l-43 -228q-10 -50 5 -69t62 -19q87 0 137 50t51 130q0 140 -154 140q-28 0 -58 -4z" />
    <glyph glyph-name="uni040A" unicode="&#x40a;" horiz-adv-x="944" 
d="M756 649l-5 -27q-60 -5 -75 -20t-28 -86l-27 -147h83q210 0 213 -161q0 -115 -112 -172q-75 -36 -197 -36h-219l6 27q57 5 71.5 19t27.5 80l39 205h-285l-39 -203q-13 -65 -2.5 -80.5t71.5 -20.5l-5 -27h-253l6 27q59 5 73.5 20t27.5 81l75 394q7 36 8.5 52.5t-6.5 28
t-22 14.5t-47 5l6 27h249l-5 -27q-59 -4 -74 -19t-27 -81l-29 -153h286l28 150q13 68 3.5 83t-67.5 20l6 27h245zM613 331l-39 -206q-10 -54 3.5 -72t58.5 -18q83 1 135 46t52 121q0 129 -152 129h-58z" />
    <glyph glyph-name="uni040B" unicode="&#x40b;" horiz-adv-x="762" 
d="M707 27l-6 -27h-237l5 27q51 5 66 19.5t27 74.5l18 96q26 129 -97 129q-55 0 -118 -30l-36 -192q-13 -61 -0.5 -77t77.5 -20l-7 -27h-272l6 27q67 4 84.5 19t29.5 78l95 492h-64q-57 0 -80.5 -9t-39.5 -30q-26 -39 -44 -75h-26q26 90 45 172h19q6 -16 15.5 -20.5
t29.5 -4.5h408q32 0 56 25h22q-14 -66 -25 -169l-29 -3q0 50 -10 80q-8 20 -28.5 27t-76.5 7h-91l-50 -264q97 42 156 42q78 0 114 -45q35 -45 18 -133l-18 -95q-11 -61 -1.5 -75.5t65.5 -18.5z" />
    <glyph glyph-name="uni040C" unicode="&#x40c;" horiz-adv-x="630" 
d="M260 0h-253l6 27q57 5 72.5 20t28.5 83l81 409q11 53 -0.5 66t-72.5 18l6 26h248l-6 -26q-54 -5 -68.5 -17.5t-25.5 -66.5l-36 -179q77 3 125 41q26 21 53 57t75 113q62 94 119 94q23 0 34 -9.5t11 -23.5q0 -15 -12.5 -24t-33.5 -9h-14q-10 0 -17 -1.5t-15.5 -8
t-14.5 -12.5t-17.5 -20.5t-19.5 -26.5t-26 -37l-32 -45q-48 -69 -113 -97l-1 -3q55 -14 92 -101q13 -27 57 -143q16 -43 37.5 -58t61.5 -19l-5 -27h-78q-43 0 -64 22t-38 69l-22 65l-28 79q-20 57 -46.5 76.5t-73.5 19.5l-38 -201q-7 -37 -8.5 -54.5t7.5 -29t23 -14t47 -5.5
zM572 755l-3 -8l-187 -63l-13 24l161 102q9 -2 24 -22.5t18 -32.5z" />
    <glyph glyph-name="uni040E" unicode="&#x40e;" horiz-adv-x="605" 
d="M694 649l-5 -27q-49 -6 -67.5 -21.5t-58.5 -80.5q-23 -37 -117 -198l-123 -211q-88 -140 -170 -140q-53 0 -65 37q-4 13 0.5 27.5t16.5 23.5q17 12 31 0q27 -23 54 -23q52 0 103 106q3 21 -6 54q-6 22 -29 98l-52 164l-31 100q-11 37 -26 48t-61 16l6 27h223l-5 -27
l-34 -6q-19 -3 -23 -14t4 -38l99 -327q121 213 169 307q20 42 16 55.5t-32 17.5l-36 5l6 27h213zM506 818l28 -9q-40 -113 -143 -113h-1q-40 0 -64 20.5t-24 47.5q0 16 15 38l10 14h22q-7 -67 57 -67q63 0 100 69z" />
    </font>
</defs>
</svg>
